<?xml version="1.0" standalone="no"?>
<!DOCTYPE svg PUBLIC "-//W3C//DTD SVG 1.1//EN" "http://www.w3.org/Graphics/SVG/1.1/DTD/svg11.dtd" >
<!--
2013-9-30: Created.
-->
<svg>
<metadata>
Created by iconfont
</metadata>
<defs>

<font id="iconfont" horiz-adv-x="1024" >
  <font-face
    font-family="iconfont"
    font-weight="500"
    font-stretch="normal"
    units-per-em="1024"
    ascent="896"
    descent="-128"
  />
    <missing-glyph />
    
    <glyph glyph-name="shouji" unicode="&#58903;" d="M820.409449 45.43832065000004q0-25.19685-10.07874-46.866142t-27.716535-38.299213-41.322835-26.204724-50.897638-9.574803l-357.795276 0q-27.212598 0-50.897638 9.574803t-41.322835 26.204724-27.716535 38.299213-10.07874 46.866142l0 675.275591q0 25.19685 10.07874 47.370079t27.716535 38.80315 41.322835 26.204724 50.897638 9.574803l357.795276 0q27.212598 0 50.897638-9.574803t41.322835-26.204724 27.716535-38.80315 10.07874-47.370079l0-675.275591zM738.771654 672.33595765l-455.559055 0 0-577.511811 455.559055 0 0 577.511811zM510.992126 66.60367465000002q-21.165354 0-36.787402-15.11811t-15.622047-37.291339q0-21.165354 15.622047-36.787402t36.787402-15.622047q22.173228 0 37.291339 15.622047t15.11811 36.787402q0 22.173228-15.11811 37.291339t-37.291339 15.11811zM591.622047 758.00524965q0 8.062992-5.03937 12.598425t-11.086614 4.535433l-128 0q-5.03937 0-10.582677-4.535433t-5.543307-12.598425 5.03937-12.598425 11.086614-4.535433l128 0q6.047244 0 11.086614 4.535433t5.03937 12.598425z"  horiz-adv-x="1024" />

    
    <glyph glyph-name="menu" unicode="&#58941;" d="M847.732 658.479h-718.057c-4.841 0-8.751-3.91-8.751-8.751v-17.501c0-4.841 3.91-8.751 8.751-8.751h718.057c4.841 0 8.751 3.91 8.751 8.751l0 17.455c0.047 4.841-3.91 8.797-8.751 8.797zM847.732 378.228h-718.057c-4.841 0-8.751-3.91-8.751-8.751v-17.501c0-4.841 3.91-8.751 8.751-8.751h718.057c4.841 0 8.751 3.91 8.751 8.751v17.501c0.047 4.841-3.91 8.751-8.751 8.751zM847.732 98.025h-718.010c-4.841 0-8.751-3.91-8.751-8.751v-17.501c0-4.841 3.91-8.751 8.751-8.751h718.057c4.841 0 8.751 3.91 8.751 8.751v17.501c0 4.841-3.956 8.751-8.797 8.751z"  horiz-adv-x="1024" />

    
    <glyph glyph-name="iconset0415" unicode="&#59174;" d="M960 405.333333 115.2 405.333333l177.066667 177.066667c4.266667 4.266667 6.4 8.533333 6.4 14.933333 0 12.8-8.533333 21.333333-21.333333 21.333333-6.4 0-10.666667-2.133333-14.933333-6.4l-213.333333-213.333333C44.8 394.666667 42.666667 390.4 42.666667 384s2.133333-10.666667 6.4-14.933333l213.333333-213.333333c4.266667-4.266667 8.533333-6.4 14.933333-6.4 12.8 0 21.333333 8.533333 21.333333 21.333333 0 6.4-2.133333 10.666667-6.4 14.933333L115.2 362.666667 960 362.666667c12.8 0 21.333333 8.533333 21.333333 21.333333S972.8 405.333333 960 405.333333z"  horiz-adv-x="1024" />

    
    <glyph glyph-name="iconset0416" unicode="&#59175;" d="M974.933333 398.933333l-213.333333 213.333333C757.333333 616.533333 753.066667 618.666667 746.666667 618.666667c-12.8 0-21.333333-8.533333-21.333333-21.333333 0-6.4 2.133333-10.666667 6.4-14.933333l177.066667-177.066667L64 405.333333c-12.8 0-21.333333-8.533333-21.333333-21.333333s8.533333-21.333333 21.333333-21.333333l844.8 0-177.066667-177.066667C727.466667 181.333333 725.333333 177.066667 725.333333 170.666667c0-12.8 8.533333-21.333333 21.333333-21.333333 6.4 0 10.666667 2.133333 14.933333 6.4l213.333333 213.333333c4.266667 4.266667 6.4 8.533333 6.4 14.933333S979.2 394.666667 974.933333 398.933333z"  horiz-adv-x="1024" />

    
    <glyph glyph-name="iconfontpinglun" unicode="&#58939;" d="M511.999 48.117c-28.734 0-56.729 2.604-83.97 7.1L231.233-64.186 231.233 134.593C128.618 206.645 62.772 317.11 62.772 441.174c0 217.08 201.13 393.059 449.229 393.059 248.084 0 449.229-175.98 449.229-393.059C961.228 224.083 760.083 48.117 511.999 48.117zM511.999 778.083c-217.087 0-393.074-150.852-393.074-336.908 0-114.166 66.422-214.898 167.762-275.82l-1.769-130.234 132.172 79.456c30.448-6.498 62.117-10.31 94.91-10.31 217.102 0 393.073 150.825 393.073 336.907C905.073 627.23 729.102 778.083 511.999 778.083zM736.614 385.023c-31.011 0-56.153 25.128-56.153 56.15 0 31.011 25.143 56.152 56.153 56.152 31.012 0 56.154-25.142 56.154-56.152C792.768 410.151 767.624 385.023 736.614 385.023zM511.999 385.023c-31.011 0-56.153 25.128-56.153 56.15 0 31.011 25.143 56.152 56.153 56.152 31.012 0 56.154-25.142 56.154-56.152C568.154 410.151 543.011 385.023 511.999 385.023zM287.386 385.023c-31.011 0-56.153 25.128-56.153 56.15 0 31.011 25.143 56.152 56.153 56.152 31.01 0 56.152-25.142 56.152-56.152C343.538 410.151 318.396 385.023 287.386 385.023z"  horiz-adv-x="1024" />

    
    <glyph glyph-name="shouji-copy" unicode="&#58931;" d="M514.553 81.183c-28.167 0-51.083-22.914-51.083-51.084 0-28.167 22.916-51.084 51.083-51.084 28.169 0 51.086 22.915 51.086 51.084-0.001 28.17-22.917 51.084-51.086 51.084zM767.288 885.26h-505.468c-42.523 0-77.118-34.595-77.118-77.118v-848.284c0-42.524 34.595-77.118 77.118-77.118h505.467c42.523 0 77.117 34.594 77.117 77.118v848.284c0.001 42.523-34.593 77.118-77.116 77.118zM261.82 833.847h505.467c14.175 0 25.707-11.533 25.707-25.707v-635.529h-556.879v635.53c0 14.174 11.532 25.706 25.706 25.706zM767.288-65.846h-505.468c-14.174 0-25.707 11.531-25.707 25.706v156.941h556.88v-156.942c0.001-14.175-11.531-25.705-25.706-25.705z"  horiz-adv-x="1024" />

    
    <glyph glyph-name="youxiang" unicode="&#58930;" d="M893.421013 632.085238c-1.982144-16.412808-9.237385-32.210609-21.676695-44.729737L581.597101 297.208285c-29.696346-29.696346-78.243015-29.696346-107.939361 0L183.510524 587.355501c-12.519128 12.519128-19.770276 28.396747-21.676695 44.729737-0.38374-3.130294-0.611937-6.259564-0.611937-9.465582l0-396.939451c0-41.983183 34.348296-76.335572 76.336596-76.335572l580.14196 0c41.980113 0 76.332503 34.352389 76.332503 76.335572L894.03295 622.619656C894.03295 625.825674 893.804752 628.954945 893.421013 632.085238L893.421013 632.085238 893.421013 632.085238zM581.597101 352.777905l304.193117 304.19414c-12.598946 24.883737-38.473243 41.983183-68.089771 41.983183L237.558487 698.955228c-29.616528 0-55.499012-17.099447-68.089771-41.983183L473.65774 352.777905C503.349993 323.082582 551.900755 323.082582 581.597101 352.777905L581.597101 352.777905 581.597101 352.777905z"  horiz-adv-x="1024" />

    
    <glyph glyph-name="fangdajing" unicode="&#58919;" d="M951.867146-11.125129 740.245378 200.496639c56.622602 66.858734 90.769306 153.358807 90.769306 247.834528 0 211.911364-171.788551 383.699915-383.699915 383.699915S63.61383 660.243555 63.61383 448.331167s171.788551-383.699915 383.699915-383.699915c94.595448 0 181.193759 34.233686 248.087285 90.985224l211.604372-211.604372c9.792017-9.792017 25.668613-9.792017 35.461653 0l9.401114 9.401114C961.660186-36.793742 961.660186-20.917146 951.867146-11.125129zM128.600937 448.639183c0 176.893826 143.401014 320.29484 320.29484 320.29484s320.29484-143.401014 320.29484-320.29484-143.401014-320.29484-320.29484-320.29484S128.600937 271.745357 128.600937 448.639183z"  horiz-adv-x="1024" />

    
    <glyph glyph-name="sousuo" unicode="&#58961;" d="M966.4-28.8l-230.4 227.2c60.8 67.2 96 156.8 96 256 0 217.6-176 390.4-390.4 390.4-217.6 0-390.4-176-390.4-390.4 0-217.6 176-390.4 390.4-390.4 99.2 0 188.8 35.2 256 96l230.4-227.2c9.6-9.6 28.8-9.6 38.4 0C979.2-54.4 979.2-38.4 966.4-28.8zM102.4 454.4c0 185.6 150.4 339.2 339.2 339.2s339.2-150.4 339.2-339.2c0-89.6-35.2-172.8-92.8-233.6-3.2 0-3.2-3.2-6.4-3.2-3.2-3.2-3.2-3.2-3.2-6.4-60.8-57.6-144-92.8-233.6-92.8C256 115.2 102.4 268.8 102.4 454.4z"  horiz-adv-x="1024" />

    
    <glyph glyph-name="xiangyoujiantou1" unicode="&#58975;" d="M761.6 406.4l-432 435.2c-9.6 9.6-25.6 9.6-35.2 0-9.6-9.6-9.6-25.6 0-35.2l416-416-416-425.6c-9.6-9.6-9.6-25.6 0-35.2s25.6-9.6 35.2 0l432 441.6C771.2 380.8 771.2 396.8 761.6 406.4z"  horiz-adv-x="1024" />

    
    <glyph glyph-name="xiangzuojiantou1" unicode="&#58976;" d="M729.6-35.2l-416 425.6 416 416c9.6 9.6 9.6 25.6 0 35.2-9.6 9.6-25.6 9.6-35.2 0l-432-435.2c-9.6-9.6-9.6-25.6 0-35.2l432-441.6c9.6-9.6 25.6-9.6 35.2 0C739.2-60.8 739.2-44.8 729.6-35.2z"  horiz-adv-x="1024" />

    
    <glyph glyph-name="jiantou" unicode="&#58987;" d="M780.662 391.07244444l0.177 0.164-489.99 489.978-30.487-30.487 460.814-460.8-460.732-459.995 29.314-29.327 491.083 490.291z"  horiz-adv-x="1024" />

    
    <glyph glyph-name="xitongcaidan" unicode="&#59030;" d="M929.70745 596.56321 93.792153 596.56321c-16.575514 0-30.013571 13.100366-30.013571 29.67588s13.438057 29.67588 30.013571 29.67588l835.916321 0c16.575514 0 30.013571-13.100366 30.013571-29.67588S946.283987 596.56321 929.70745 596.56321zM775.639492 349.946416 93.792153 349.946416c-16.575514 0-30.013571 13.612019-30.013571 30.187533s13.438057 30.187533 30.013571 30.187533L775.639492 410.321482c16.575514 0 30.013571-13.612019 30.013571-30.187533S792.215006 349.946416 775.639492 349.946416zM929.70745 104.352929 93.792153 104.352929c-16.575514 0-30.013571 13.100366-30.013571 29.67588s13.438057 29.67588 30.013571 29.67588l835.916321 0c16.575514 0 30.013571-13.100366 30.013571-29.67588S946.283987 104.352929 929.70745 104.352929z"  horiz-adv-x="1024" />

    
    <glyph glyph-name="qzone" unicode="&#59176;" d="M742.14031791 318.45039079000003c-9.55892557-9.12860348-11.52687652-13.43716696-9.55892556-26.12687583l3.97114017-21.75317635c-88.452096 1.08701843-186.85393252 5.13824243-266.72520522 16.42806887-6.49114226 0.95994991-0.42925461 4.46980174-0.4292546 4.46980174l259.50582469 179.90790783c0 0 10.22629878 6.38649809-0.67378017 8.05226295-14.16540522 2.3192567-43.93881078 6.39504104-43.81174226 6.46124453-52.52176904 6.44309217-110.16149322 9.94012904-170.66825322 9.94012904-102.56197565 0-196.92646852-10.20707896-271.91470226-27.32708035l7.62194087 0c110.98049322 0 228.95613078-4.23061461 335.48924661-20.83273461 6.70043061-0.94179757-0.00854191-5.14144591-0.00854192-5.14144591L325.777136 258.31735878999996c0 0-10.88299513-6.49541426-0.81473009-8.06507687 26.87646991-3.69030887 55.12826296-6.58724452 84.55570226-8.64275478l0.00427096 0.00854191c33.52564696-2.32673113 68.47893913-3.6508007 104.45091026-3.6508007 97.53371583 0 202.71179687 10.86911374 279.19921878 29.17757426l5.18095513 1.00266261c-12.85521704-10.38646852-34.25708765-19.52574991-56.37331513-27.01208035l36.98317566-202.81750852c3.98822504-21.81831235-8.41104313-30.5795927-27.63033496-19.49051269L535.22994017 143.66684399999997c-14.81889704 9.19480696-28.75686157 8.9097047-43.86086087-0.63533947L276.28043861 18.82740365999996c-19.19686852-11.07092765-31.5801193-2.31818922-27.48084313 19.4744953l48.30076487 254.22022539c2.471952 11.42970783 2.31818922 15.01216904-6.49648174 23.26410992L102.1973673 488.98837305c-16.04045843 15.31755861-11.07519861 29.60148939 10.9096894 31.81503443l240.14665147 26.93306296c18.65869878 1.78429043 22.19204139 4.71112383 29.93143931 17.76388383l113.01998713 235.26468c9.70307791 19.93791965 25.53531548 19.93791965 35.22985148 0l106.01096243-235.26468c5.895312-15.40511896 10.21134991-18.3992233 29.08894644-20.13012313l247.94904939-24.58070505c21.99770191-2.16869739 26.82841878-16.39176313 10.60216382-31.49576348L742.08479235 318.24110243999996 742.14031791 318.45039079000003 742.14031791 318.45039079000003zM742.14031791 318.45039079000003"  horiz-adv-x="1024" />

    
    <glyph glyph-name="changyonglogo28" unicode="&#59157;" d="M471.66705173 444.17801949c56.80636244 59.63666685 128.80431224 80.50324807 213.510973 75.89266172-1.88982036 8.66020171-1.96173986 15.37747304-4.74668034 20.67184659-13.74545567 26.13440031-24.54332239 54.91654207-43.01996731 77.28236613-110.55006471 133.82096614-333.08747363 149.71183292-462.19606107 33.72355672-66.70357625-59.92655708-94.4843789-134.82119913-75.40582355-223.61288086 12.21633893-56.84730081 47.1304377-100.2489945 92.56579075-134.67182845 14.81096927-11.22606426 17.20975779-21.26379872 10.845444-37.42021348-7.89785612-20.04116834-13.85056853-40.85132117-20.64197161-61.32953819 19.02655145 4.18902771 34.40181117 10.55444764 48.56108048 18.96790974 33.2024169 19.72804309 66.16141472 30.46062919 106.16408798 18.27416419 24.15274487-7.35348126 51.43011103-4.45900235 80.83739721-6.40193274C396.82219919 311.88285065 414.22669269 383.86973708999994 471.66705173 444.17801949zM496.79679348 599.7839230899999c21.44636277 0.30759357 34.38189558-11.8102703 34.84549872-32.63038144 0.47798705-21.46849167-11.59783232-34.59765408-32.2663584-35.08228001-23.75552844-0.55875875-41.69997016 13.77643571-41.87036362 33.44362375C457.34181452 584.44075062 474.57148898 599.4696906199999 496.79679348 599.7839230899999zM293.14873591 532.0790077300001c-23.45567988-0.07966451-40.85906618 14.67598141-40.59130487 34.41508894 0.2522713 18.76321677 17.45539021 33.11722071 39.89534708 33.2953592 21.16753699 0.16264846 35.8512634-14.12275542 35.53813814-34.58216298C327.68664105 545.31992081 313.83053975 532.1431822100001 293.14873591 532.0790077300001zM861.63723286 435.1316669c-88.44314977 85.17358335-232.57735671 98.8747812-337.58077655 32.0804749-135.66984812-86.2988448-134.49922166-263.57572186 2.99627233-346.79641649 66.04413128-39.97501158 137.47668452-51.16677528 212.55389171-30.91538013 15.54565319 4.19456047 28.11495071 2.98299563 41.76967632-5.47915093 18.56958719-11.51042173 38.34631366-21.07902027 57.60743306-31.48077778 1.37753275 1.02789359 2.75506549 2.05578826 4.13259932 3.08478905-5.27888354 18.40251317-11.67417738 36.59258729-15.26461409 55.32260962-1.35097827 7.03592935 1.6552524 17.18762781 6.41410332 22.67231151 12.24731896 14.09841427 27.69671149 25.42627086 39.91415654 39.55345292C946.32287083 256.60228660999996 941.19557129 358.50653351000005 861.63723286 435.1316669zM595.99465827 334.05725844999995c-16.0723247-0.24673854-29.07645757 12.17982611-28.57191495 27.29949508 0.49347815 14.8209276 12.2428934 25.33332966 28.27206639 25.29017796 17.63795426-0.04536502 32.09596493-12.38341294 31.57814563-26.94653649C626.78832939 346.13418501 612.36461822 334.30842362 595.99465827 334.05725844999995zM756.21114823 334.02406507c-14.58082688 0.22018406-28.45573765 12.70207098-28.7976307 25.90536511-0.36844862 14.13271375 13.72332676 26.86576585 29.59870243 26.7451619 18.12921908-0.14051956 31.2451037-11.98509041 30.53586706-27.57168197C786.91409041 345.18927429999997 772.64860211 333.77290098000003 756.21114823 334.02406507z"  horiz-adv-x="1024" />

    
    <glyph glyph-name="jiantou1" unicode="&#58926;" d="M398.499 659.5l274.256-274.256-274.256-274.256z"  horiz-adv-x="1024" />

    
    <glyph glyph-name="riqi" unicode="&#58936;" d="M717.77869 105.449913l36.163641 0c20.926612 0 37.882795 12.537548 37.882795 27.983331s-16.97358 27.982308-37.882795 27.982308l-36.163641 0c-20.909216 0-37.882795-12.535501-37.882795-27.982308S696.869474 105.449913 717.77869 105.449913L717.77869 105.449913zM717.77869 273.345808l36.163641 0c20.926612 0 37.882795 12.537548 37.882795 27.983331 0 15.445784-16.97358 27.982308-37.882795 27.982308l-36.163641 0c-20.909216 0-37.882795-12.535501-37.882795-27.982308C679.895895 285.882332 696.869474 273.345808 717.77869 273.345808L717.77869 273.345808zM493.922273 273.345808l36.153408 0c20.914332 0 37.888935 12.537548 37.888935 27.983331 0 15.445784-16.974603 27.982308-37.888935 27.982308l-36.153408 0c-20.919449 0-37.888935-12.535501-37.888935-27.982308C456.033337 285.882332 473.002824 273.345808 493.922273 273.345808L493.922273 273.345808zM270.062785 273.345808l36.152385 0c20.920472 0 37.888935 12.537548 37.888935 27.983331 0 15.445784-16.968463 27.982308-37.888935 27.982308l-36.152385 0c-20.915355 0-37.888935-12.535501-37.888935-27.982308C232.17385 285.882332 249.14743 273.345808 270.062785 273.345808L270.062785 273.345808zM493.922273 105.449913l36.153408 0c20.914332 0 37.888935 12.537548 37.888935 27.983331s-16.974603 27.982308-37.888935 27.982308l-36.153408 0c-20.919449 0-37.888935-12.535501-37.888935-27.982308S473.002824 105.449913 493.922273 105.449913L493.922273 105.449913zM270.062785 105.449913l36.152385 0c20.920472 0 37.888935 12.537548 37.888935 27.983331s-16.968463 27.982308-37.888935 27.982308l-36.152385 0c-20.915355 0-37.888935-12.535501-37.888935-27.982308S249.14743 105.449913 270.062785 105.449913L270.062785 105.449913zM794.910395 721.067852 738.432079 721.067852 738.432079 800.682098c0.063445 0.76441 0.104377 1.535983 0.104377 2.315742 0 15.158235-12.288884 27.448142-27.447119 27.448142-15.026228 0-27.224038-12.076036-27.438932-27.051099l-0.010233 0 0-82.328054L343.204619 721.066829 343.204619 800.682098c0.063445 0.76441 0.104377 1.535983 0.104377 2.315742 0 15.158235-12.288884 27.448142-27.448142 27.448142-15.025205 0-27.224038-12.076036-27.437909-27.051099l-0.010233 0 0-82.328054-59.278081 0c-90.915639 0-164.856675-63.74072-164.856675-184.086645l0-432.824753c0-86.538959 65.61951-157.866471 149.2093-165.858492l581.423139-0.743944c90.864474 0 164.81165 74.752518 164.81165 166.624948L959.722044 554.487929C959.722044 646.342963 885.796358 721.067852 794.910395 721.067852L794.910395 721.067852zM903.756405 87.736483c0-51.940976-45.096081-94.216825-100.519368-94.216825l-582.424956 0c-55.449893 0-100.568487 42.275849-100.568487 94.216825L120.243595 441.242725l783.51281 0L903.756405 87.736483 903.756405 87.736483zM903.756405 570.9079l0-73.701582L120.242572 497.206318l0 73.67907c0 46.157249 40.574091 94.216825 111.931279 94.216825l56.239885 0 0-84.002183 0.024559 0c0.518816-14.70491 12.593829-26.467815 27.423583-26.467815 15.158235 0 27.447119 12.289907 27.447119 27.448142 0 0.780783-0.039909 1.552356-0.104377 2.315742l0 80.706113 340.437599 0 0-84.002183 0.024559 0c0.517793-14.70491 12.593829-26.467815 27.42256-26.467815 15.158235 0 27.448142 12.289907 27.448142 27.448142 0 0.780783-0.039909 1.552356-0.104377 2.315742l0 80.706113 53.394071 0C847.248414 665.102213 908.62018 624.213967 903.756405 570.9079L903.756405 570.9079z"  horiz-adv-x="1024" />

    
    <glyph glyph-name="QQ" unicode="&#58922;" d="M250.16533334 437.04990477l-1.344 4.192-1.056 5.44-0.768 2.976v12.256l1.312 4.832 1.344 5.12 1.728 5.312 2.336 5.952 3.104 6.24 4.384 6.176v4.384l0.416 4.032 0.64 5.536 1.888 6.208 1.728 6.72 1.376 3.104 1.6 2.88 2.048 3.2 2.208 2.336V549.30590477l1.312 7.904 1.312 9.184 2.304 11.008 3.2 11.392 2.368 6.336 2.336 6.816 2.56 6.4 3.104 6.816 3.136 7.488 3.616 7.04 4.032 7.456 5.12 7.488 2.368 4.256 2.528 3.52 5.472 7.904 5.632 7.904 6.4 8.096 6.848 7.904 7.456 7.808 7.776 8 9.408 8.64 5.984 5.216 7.264 5.664 7.36 5.024 8 4.8 7.648 4.256 8.64 3.52 9.184 4.384 9.12 2.976 9.152 3.072 9.792 3.104 9.856 2.368 10.336 1.92 10.496 1.696 10.304 1.408 10.368 1.376 11.008 0.64h32.544l10.848-1.376 10.912-1.28 11.104-1.216 10.336-2.432 10.912-2.336 10.24-2.656 11.168-3.008 10.272-3.616 9.824-4.16 10.464-4.384 9.568-4.8 9.312-5.312 9.088-5.888 7.872-5.44 3.616-3.104 3.84-2.24 7.296-6.208 6.144-5.952 6.08-6.208 6.016-6.816 4.928-6.624 5.792-6.816 4.128-7.392 4.128-6.496 4.384-7.584 3.616-6.592 6.176-14.016 3.008-7.232 2.368-6.72 2.336-7.264 2.112-6.816 1.504-5.888 1.888-6.912 3.36-12.384 2.112-10.784 1.376-10.464 1.216-8.416 1.856-12.8 0.448-2.048 1.504-2.368 4.064-6.624 2.592-4.448 2.304-4.704 2.976-4.992 2.592-6.016 1.696-6.176 1.792-6.72 1.408-6.944 0.672-3.392 0.544-4.16v-3.648l-0.544-3.648v-4.48l-1.088-4.352-1.92-8.416-2.24-4.288-1.6-4.8v-1.184l0.736-1.504 2.24-3.52 9.6-14.176 7.616-10.656 3.616-7.168 4.896-7.776 4.288-8.544 4.896-9.184 4.896-10.24 5.536-11.616 3.136-7.168 2.848-6.944 2.496-7.36 2.4-6.592 1.824-6.976 1.888-6.496 2.4-12.704 1.888-13.024 1.28-11.488v-16.256l-0.864-5.76-1.248-9.952-1.696-8.928-2.656-8.096-0.992-3.328-1.824-3.936-1.568-2.784-2.048-3.424-1.824-2.144-2.304-2.752-2.08-2.24-2.208-1.92-2.656-1.152-2.368-1.184-1.92-0.64h-2.976l-1.952 0.64-3.616 1.792-1.696 1.184-1.728 1.28-1.888 1.696-1.92 1.92-3.2 3.52-3.776 5.024-2.976 5.12-2.944 4.16-2.912 4.8-4.064 8.544-4.576 8.864-0.544 0.32h-0.768l-1.888-1.376-1.088-2.368-1.76-2.88-3.136-8.64-4.704-12.288-6.048-14.72-4.544-7.36-4.768-7.68-5.632-8.64-6.016-8.448-3.072-3.84-3.712-4.16-8.576-8.416 0.768-0.736 1.152-1.216 4.288-2.528 17.792-8.544 7.776-4.384 7.424-4.256 7.328-5.344 6.528-5.568 3.2-2.432 2.368-2.88 2.4-3.296 2.08-3.648 1.088-2.976 1.344-3.648 0.544-3.072 0.64-3.648-0.64-2.432v-2.464l-0.544-2.56-1.344-2.336-0.544-1.856-1.216-2.208-3.2-4.384-2.976-3.52-2.336-2.656-1.952-1.92-4.896-3.648-5.568-3.104-5.952-2.976-6.304-2.88-7.136-2.784-3.776-1.152-3.392-0.96-8.192-1.952-8.544-1.792-8.512-1.792-9.28-1.536-9.632-0.416-9.824-1.184H659.06133334l-11.008 0.64-10.272 0.96-11.008 1.536-10.944 1.152-11.552 1.6-11.2 2.784-10.88 2.112-10.88 3.104-11.104 3.968-10.912 3.296-5.728 1.888-5.12 1.856-3.232 1.28-3.2 0.64H522.96533334l-10.464 0.736-5.312 0.544-6.848 0.736-4.352-3.936-6.016-3.744-8.096-3.968-8.96-4.896-5.44-2.656-5.696-2.144-12.576-5.12-6.816-1.728-7.136-1.92-9.952-1.92-6.208-0.48-6.592-0.576-6.848-0.736-8-0.352H365.04533334l-18.432 0.352-17.888 1.792-9.088 1.28-8.736 1.312-8.512 1.248-8.544 1.728-7.904 2.56-7.904 1.792-7.136 2.912-6.752 2.656-6.272 3.008-5.408 3.296-5.472 3.936-1.824 1.92-2.432 2.368-1.856 2.016-1.664 2.336-1.504 2.368-1.184 2.336-1.696 4.992-0.64 2.592-0.736 2.88v2.656l0.736 2.976v3.04l0.64 2.976v5.984l0.288 3.168 1.408 3.648 1.184 3.616 2.144 4.384 1.568 1.696 1.312 1.92 3.392 4.16 2.688 2.144 2.56 1.504 2.336 1.92 3.744 1.152 2.976 1.824 3.712 1.92 4.288 1.248 4.256 1.312 4.928 1.088 4.672 0.64 5.568 0.736 5.984 0.416 1.6 0.544h0.32l0.768 0.64V151.16190476999998l-1.088 1.504-3.2 1.472-8 6.944-5.344 4.288-6.208 5.408-6.272 6.08-6.528 7.808-7.424 8.736-2.816 4.704-3.744 4.928-3.168 5.664-2.88 6.176-3.872 5.856-2.528 6.752-3.008 6.72-3.008 7.456-2.208 7.136-2.048 8.864-0.64 0.352h-0.64l-0.288 0.64h-0.768l-1.28-0.64-0.64-0.352-0.864-1.472-0.32-1.824-0.672-1.6-1.12-2.656-3.68-6.528-1.888-3.936-3.008-3.424-3.2-4.16-3.488-4.576-3.744-4.064-4.352-3.968-4.096-3.712-4.448-2.912-4.928-3.072-4.672-1.824-5.568-1.376-5.44-0.544H162.13333334l-1.248 0.544-0.96 2.144-1.632 1.056-2.08 5.12-1.312 2.784-1.408 3.936-1.152 4.16-0.608 4.064-1.76 9.28-0.64 5.44V262.48990476999995l0.64 13.312 1.088 6.816 1.28 7.072 1.152 7.552 2.048 7.072 2.336 8.096 2.368 7.904 3.2 8.128 2.976 7.776 4.128 7.872 3.904 8.576 4.672 7.968 5.568 8.672 5.632 7.776 5.888 8.64 4.896 5.984 6.272 6.944 6.624 6.912 3.072 3.328 3.776 3.744 5.408 4.704 5.568 4.768 9.056 8.128 6.88 4.992z"  horiz-adv-x="1024" />

    
    <glyph glyph-name="tubiao_daohangcaidan" unicode="&#58896;" d="M900.8 11.2H123.2c-12.8 0-24 11.2-24 24s11.2 24 24 24h777.6c12.8 0 24-11.2 24-24s-11.2-24-24-24zM123.2 400h486.4c12.8 0 24-11.2 24-24s-11.2-24-24-24H123.2c-12.8 0-24 11.2-24 24S110.4 400 123.2 400z m680 291.2H123.2c-12.8 0-24 11.2-24 24s11.2 24 24 24h680c12.8 0 24-11.2 24-24s-9.6-24-24-24z"  horiz-adv-x="1024" />

    
    <glyph glyph-name="xiangxia-copy-right" unicode="&#59159;" d="M173.343 263.64c6.281 0 12.564 2.333 17.393 7.01500001l324.508 314.45099999 327.082-314.514c9.797-9.422 25.495-9.243 35.064 0.395 9.57 9.64600001 9.386 25.099-0.407 34.513l-344.479 331.243c-9.658 9.285-25.095 9.262-34.721-0.069l-341.837-331.24c-9.757-9.453-9.881-24.906-0.271-34.512 4.853-4.853 11.26-7.283 17.667-7.282v0 0zM771.742 114.87699999999995c4.294 0 8.587 1.63299999 11.824 4.901 6.379 6.423 6.254 16.72800001-0.272 23.004l-256.566 246.705c-6.427 6.184-16.692 6.18-23.115-0.008l-254.968-245.729c-6.52-6.292-6.631-16.589-0.244-23.009 6.383-6.423 16.853-6.528 23.372-0.244l243.414 234.601 244.998-235.589c3.218-3.094 7.386-4.633 11.552-4.634l0.004 0zM771.742 114.87699999999995z"  horiz-adv-x="1024" />

    
    <glyph glyph-name="bofang" unicode="&#58904;" d="M893.035 432.178321C839.00765 466.300859 210.584253 867.240672 179.305261 887.145486 139.495634 912.737389 99.686007 878.614852 99.686007 838.805225v-909.934329c0-45.496716 42.653172-68.245075 76.775709-48.340262 45.496716 28.435448 676.763657 429.375262 716.573284 454.967165 34.122537 22.748358 34.122537 76.775709 0 96.680522z"  horiz-adv-x="1024" />

    
    <glyph glyph-name="shouye" unicode="&#58927;" d="M872.27671814 390.61857605c-8.8433075-8.8433075-19.46640015-12.38433838-31.85073853-12.38433837-12.38433838 1.77978516-23.00743103 3.54103088-30.08949279 10.62309264-3.54103088 1.76124573-10.62309265 7.06352234-23.00743104 19.44786072-12.38433838 10.60455323-26.54846192 24.75013733-44.25361633 40.65696716a15519.63386536 15519.63386536 0 0 0-56.63795471 51.26152039 1466.43173218 1466.43173218 0 0 1-56.63795471 53.04130554c-17.68661499 15.90682984-33.61198425 30.05241394-46.01486206 42.41821289-12.38433838 12.38433838-21.22764588 19.44786072-24.76867676 22.9888916-15.92536927 12.36579895-30.08949279 19.44786072-46.01486206 19.44786072-14.16412354 0-30.08949279-7.08206177-44.25361633-19.44786072-5.30227661-3.54103088-14.16412354-12.38433838-28.30970764-24.75013732-14.16412354-12.38433838-30.08949279-26.52992248-47.79464722-42.43675232-17.70515442-15.90682984-37.17155456-33.57490539-56.63795471-51.26152039-19.46640015-17.68661499-38.93280029-33.59344482-54.85816956-49.50027466-15.92536927-14.14558411-30.08949279-28.29116821-42.47383117-38.89572143-10.62309265-10.60455323-19.48493958-17.66807557-21.24618531-19.44786073-7.08206177-5.30227661-17.70515442-8.82476807-30.0894928-8.82476806s-23.00743103 3.52249146-31.85073852 10.60455322C144.86369323 403.00291443 141.32266235 413.60746765 141.32266235 425.97326661c0 12.38433838 5.30227661 22.98889161 12.38433838 30.05241393 1.77978516 1.76124573 10.62309265 10.60455323 26.54846192 24.75013733s33.63052368 30.05241394 54.87670898 49.50027466c21.22764588 19.44786072 44.2350769 38.89572143 69.02229309 61.86607361 23.00743103 21.22764588 46.01486206 42.43675232 67.24250794 61.88461303 21.24618531 19.44786072 40.71258545 35.35469055 54.87670898 49.50027466a620.84838867 620.84838867 0 0 1 26.54846192 24.75013734C470.52729797 745.9452667200001 491.75494385 754.78857422 513.00112915 754.78857422c21.22764588 0 38.93280029-7.06352234 54.85816955-21.20910645 1.77978516-3.54103088 8.86184693-8.8433075 17.70515442-17.68661499s19.46640015-19.44786072 33.63052368-31.81365966a942.91534424 942.91534424 0 0 0 46.01486207-42.43675232c17.68661499-15.90682984 33.63052368-31.81365967 51.31713867-47.7204895 17.70515442-15.92536927 35.41030883-31.83219909 51.3356781-47.73902893 17.68661499-15.90682984 31.85073852-30.05241394 46.01486206-42.41821289 14.16412354-14.14558411 26.54846192-24.75013733 35.39176941-33.59344484l17.70515442-17.68661498c10.62309265-8.82476807 15.92536927-19.42932129 15.92536926-31.81365967 0-12.36579895-3.54103088-21.20910645-10.62309265-30.05241394z m-486.71562195 91.91848755c12.38433838 12.38433838 26.54846192 22.98889161 37.17155457 33.59344482 10.62309265 10.60455323 21.24618531 19.44786072 28.30970764 26.51138306l14.16412353 14.1455841c12.38433838 10.60455323 26.54846192 17.68661499 44.25361633 17.68661499 15.92536927 0 31.85073852-5.30227661 46.01486207-17.68661499 1.76124573-1.76124573 7.08206177-5.30227661 14.16412353-12.36579894l28.30970765-24.75013734c10.62309265-10.60455323 23.00743103-21.20910645 37.17155456-33.59344482 12.38433838-14.14558411 26.54846192-26.51138305 40.71258545-38.89572143a15218.64624023 15218.64624023 0 0 0 111.49612426-100.76179505v-274.01275634c0-10.60455323-3.54103088-19.44786072-12.38433838-28.27262879-8.86184693-7.08206177-19.48493958-12.38433838-33.63052367-12.38433837H604.80838013v129.77600097c0 38.89572143-33.4451294 74.15771484-74.15771485 74.15771484h-37.07885742c-40.71258545 0-74.15771484-35.26199341-74.15771484-74.15771484v-129.77600097H281.14703369c-14.16412354 0-24.78721619 1.76124573-33.63052368 8.84330748-8.8433075 5.30227661-12.38433838 14.14558411-12.38433838 26.51138307V346.420578a14139.03968811 14139.03968811 0 0 0 109.71633911 99.00054932c12.40287781 12.36579895 26.54846192 24.75013733 40.71258545 37.11593628z"  horiz-adv-x="1024" />

    
    <glyph glyph-name="weibo" unicode="&#58886;" d="M604.40523235 532.2136586500001q0-36.59920744-26.05855868-62.42315606t-62.18934669-25.82394863q-27.46381859 0-50.7695103 15.98633017-28.34220632-30.62665388-52.5855376-66.81509311Q299.78416942 223.4344688 320.396246 0.1519180300000471q0.46842023-10.07222853-5.73874423-17.62620015T298.84732976-25.965093389999993h-2.28364765q-9.13538885 0-15.98633015 6.1487117t-7.78858169 15.3417526q-6.38252106 57.62205223-1.58061652 113.2527197t13.46807244 99.25697441 24.71175234 85.08426937 31.56269283 71.1485774 33.84633964 57.21128484q27.93303955 41.16730265 60.37411931 75.48206173-7.31936074 15.98713088-7.31936073 35.25240028 0 36.59920744 25.82394861 62.42395758t62.42395676 25.82314789 62.42235534-25.82314789 25.82474934-62.42395758z m174.32826791-5.03651464q0-72.26077451-35.66236779-133.57093275t-97.20713691-96.97332755-133.80554282-35.66156705q-29.279046 0-59.90489915 6.38252185-9.60380911 2.28364682-14.87413307 10.77525885t-2.98667714 18.09461958q2.28364682 9.13458813 10.54064796 14.40491291t17.86081101 3.45509738q23.3056909-5.97335428 49.42270233-5.97335509 44.38778914 0 85.08587162 17.39159008t69.97712688 46.67143677 46.67063604 69.97712686 17.39159007 85.08587162-17.39159007 85.08507011-46.67063604 69.97712766-69.97712688 46.67143678-85.08587162 17.39158926-85.08507011-17.39158926-69.97712766-46.67143678-46.67143677-69.97712766-17.39158927-85.08507011q0-52.17557011 23.77491185-99.72539381 4.56729446-9.13458813 1.58061652-18.2699778t-11.65284586-13.70268252T288.59974382 394.19153537t-13.93729341 11.88745593q-29.279046 56.27444434-29.27904599 121.21585811 0 54.45921695 21.25665416 103.82426885T323.61753402 716.20418837t85.08507011 56.74286459T512.11690468 793.96989774q72.26157522 0 133.80634434-35.66236779t97.20713692-97.2071369 35.66156706-133.80554364z"  horiz-adv-x="1024" />

    
    <glyph glyph-name="jiantou1-you" unicode="&#58933;" d="M48.164 534.52c9.581 0 19.154-3.67 26.444-11.006l437.959-441.047 438.713 441.064c14.511 14.587 38.102 14.656 52.689 0.141 14.587-14.511 14.656-38.102 0.142-52.689l-465.153-467.643c-6.993-7.035-16.5-10.985-26.416-10.986-0.004 0-0.033 0-0.033 0-9.922 0.004-19.433 3.967-26.42 11.006l-464.378 467.643c-14.499 14.587-14.414 38.193 0.183 52.689 7.266 7.217 16.763 10.823 26.251 10.823zM567.568 497.266c0 30.175-24.475 54.645-54.644 54.644-30.175 0-54.644-24.463-54.644-54.644 0-30.175 24.463-54.644 54.644-54.644 30.175 0 54.644 24.463 54.644 54.644zM567.568 728.109c0 30.175-24.475 54.645-54.644 54.644-30.175 0-54.644-24.463-54.644-54.644 0-30.175 24.463-54.644 54.644-54.644 30.175 0 54.644 24.463 54.644 54.644z"  horiz-adv-x="1024" />

    
    <glyph glyph-name="suo" unicode="&#58923;" d="M780.16-128H243.84a170.88 170.88 0 0 0-170.688 170.688V359.616A170.88 170.88 0 0 0 243.84 530.304h536.384a170.816 170.816 0 0 0 170.624-170.688v-316.928A170.88 170.88 0 0 0 780.16-128zM243.84 481.536a121.984 121.984 0 0 1-121.92-121.92v-316.928c0-67.264 54.656-121.984 121.92-121.984h536.384c67.2 0 121.856 54.72 121.856 121.984V359.616a121.984 121.984 0 0 1-121.856 121.92H243.84zM243.84 481.536a24.32 24.32 0 0 0-24.384 24.384V627.84C219.456 777.28 343.68 894.528 502.912 896h3.008c156.608-1.472 274.304-116.288 274.304-268.16v-48.768a24.32 24.32 0 0 0-48.768 0V627.84c0 124.608-97.536 218.688-227.072 219.456C371.84 846.528 268.16 750.4 268.16 627.84v-121.92a24.32 24.32 0 0 0-24.32-24.384zM512 91.456a146.432 146.432 0 0 0-146.304 146.24A146.496 146.496 0 0 0 512 384a146.496 146.496 0 0 0 146.304-146.304A146.496 146.496 0 0 0 512 91.456z m0 243.776c-53.76 0-97.536-43.776-97.536-97.536S458.176 140.096 512 140.096c53.76 0 97.536 43.776 97.536 97.536S565.696 335.232 512 335.232zM512-6.144a24.448 24.448 0 0 0-24.384 24.448v73.152c0 13.44 10.944 24.448 24.384 24.448s24.384-11.008 24.384-24.448v-73.152a24.448 24.448 0 0 0-24.384-24.448z"  horiz-adv-x="1024" />

    
    <glyph glyph-name="yanjing" unicode="&#58897;" d="M999.424 558.592c10.752 15.872 7.168 37.376-7.168 50.176-15.872 12.288-36.864 8.704-49.664-7.168-1.536-1.536-197.632-235.52-430.592-235.52-225.792 0-430.592 235.52-432.64 237.568-12.288 14.336-35.328 15.872-49.664 3.584-14.336-12.288-15.872-35.84-3.584-50.176 3.584-5.12 46.08-53.76 113.152-107.008L49.664 355.328c-14.336-14.336-12.288-37.376 1.536-50.176 3.584-7.168 12.288-10.752 20.992-10.752 8.704 0 17.408 3.584 24.576 10.752l97.28 101.888c46.08-32.256 100.352-62.464 160.768-83.968l-36.864-126.976c-5.12-19.456 5.12-39.424 24.576-44.544H353.28c15.872 0 30.208 10.752 33.28 26.624l36.864 126.976c28.16-5.12 58.368-8.704 88.064-8.704s59.904 3.584 88.064 8.704l36.864-124.928c3.584-15.872 19.456-26.624 33.28-26.624 3.584 0 7.168 0 8.704 1.536 19.456 5.12 30.208 25.088 24.576 44.544l-36.864 124.928c59.904 21.504 114.688 51.712 160.768 83.968l95.232-99.84c7.168-7.168 15.872-10.752 24.576-10.752s17.408 3.584 24.576 10.752c14.336 14.336 14.336 35.84 1.536 50.176l-90.112 94.72c74.24 53.248 116.736 104.96 116.736 104.96z"  horiz-adv-x="1024" />

    
    <glyph glyph-name="weibo1" unicode="&#59002;" d="M867.34184213 648.8088888899999c-54.31977175 61.10974359-135.79942987 83.74298239-208.22579286 67.89971544-18.10659025-4.52664756-27.15988638-20.36991452-24.89656209-38.4765058 4.52664756-18.10659025 20.36991452-27.15988638 38.47650478-24.89656207 52.05644846 11.31661941 110.90286776-4.52664756 149.37937355-47.52980091 38.47650478-43.00315334 49.79312418-101.84957265 31.68653394-153.90602012-2.26332427-9.05329513-2.26332427-15.84326696 2.26332328-24.89656209 4.52664756-6.78997184 11.31661941-13.57994269 18.10659125-15.84326696 15.84326696-4.52664756 33.94985721 4.52664756 40.73982906 20.36991452 20.36991452 74.68968628 6.78997184 156.16934439-47.52980091 217.27908799zM770.01891705 449.63639115c13.57994269-4.52664756 29.42320965 2.26332427 33.94985821 18.10659124 11.31661941 36.2131815 4.52664756 74.68968628-22.6332388 104.11289594-27.15988638 29.42320965-65.63639115 40.73982907-101.84957265 33.94985722-15.84326696-2.26332427-24.89656209-18.10659025-20.36991454-31.68653296 2.26332427-15.84326696 18.10659025-24.89656209 31.68653394-20.36991451 18.10659025 4.52664756 36.2131815-2.26332427 49.79312418-15.84326696 13.57994269-13.57994269 15.84326696-33.94985721 11.31661941-52.05644847-4.52664756-15.84326696 4.52664756-31.68653394 18.10659025-36.2131815zM715.69914529 397.57994269c-11.31661941 4.52664756-20.36991452 6.78997184-13.57994268 20.36991452 13.57994269 33.94985721 13.57994269 63.37306787 0 83.74298241-27.15988638 38.47650478-101.84957265 36.2131815-185.59255505 0 0 0-27.15988638-11.31661941-20.36991452 9.05329512 13.57994269 43.00315334 11.31661941 76.95301056-9.05329513 97.3229251-45.26647663 45.26647663-167.48596381-2.26332427-271.59886073-106.37622022C138.55156663 422.47650478 93.28509 340.99684665999996 93.28509 268.57048466000003c0-138.06275414 176.53925894-221.80573555 348.55187128-221.80573655 226.33238411 0 375.71175667 131.27278231 375.71175667 235.38567924 0 63.37306787-54.31977175 99.58624838-101.84957266 115.42951534zM441.83696128 96.55787229999999c-138.06275414-13.57994269-255.75559377 49.79312418-264.80888888 138.06275414-9.05329513 90.53295325 95.05960081 174.27593564 233.12235495 187.85587834 138.06275414 13.57994269 255.75559377-49.79312418 264.8088889-138.06275316 9.05329513-90.53295325-95.05960081-174.27593564-233.12235497-187.85587932zM455.41690397 354.57679035c-65.63639115 18.10659025-140.32607743-15.84326696-167.48596381-72.426363-29.42320965-58.84641932 0-124.48281145 65.63639116-144.85272599 67.89971543-22.63323881 149.37937356 11.31661941 176.53925893 74.68968728 27.15988638 61.10974359-6.78997184 124.48281145-74.68968628 142.58940171z m-49.79312418-151.64269685c-13.57994269-20.36991452-40.73982907-31.68653394-63.37306787-20.36991452-20.36991452 9.05329513-27.15988638 33.94985721-13.57994269 54.31977175 13.57994269 20.36991452 40.73982907 29.42320965 61.10974359 20.36991453 22.63323881-6.78997184 29.42320965-31.68653394 15.84326697-54.31977176z"  horiz-adv-x="1024" />

    
    <glyph glyph-name="jingdong" unicode="&#59540;" d="M512 384m-512 0a512 512 0 1 1 1024 0 512 512 0 1 1-1024 0ZM716.8 460.8v40h-148.8v-40h64v-38.4c0-6.4-1.6-11.2-3.2-12.8-3.2-1.6-6.4-3.2-11.2-3.2v-11.2c12.8 0 22.4 3.2 28.8 8 6.4 4.8 9.6 12.8 9.6 24v33.6h60.8z m-22.4 11.2h-105.6v14.4h105.6v-14.4z m-41.6 57.6h-22.4v-9.6h-68.8v-12.8h160v12.8h-68.8v9.6zM561.6 393.6h12.8c27.2 24 33.6 57.6 33.6 57.6h-24c-3.2-24-12.8-43.2-22.4-57.6z m113.6 57.6s6.4-33.6 33.6-57.6h12.8c-9.6 12.8-19.2 33.6-22.4 57.6h-24z m70.4-57.6h12.8c27.2 24 33.6 57.6 33.6 57.6H768c-3.2-24-12.8-43.2-22.4-57.6z m113.6 57.6s6.4-33.6 33.6-57.6h12.8c-9.6 12.8-19.2 33.6-22.4 57.6h-24zM801.6 521.6l4.8 9.6H784l-4.8-9.6h-33.6v-12.8h28.8l-22.4-48h64v-38.4c0-8-1.6-11.2-3.2-12.8-3.2-1.6-6.4-3.2-11.2-3.2v-11.2c12.8 0 22.4 3.2 28.8 8 6.4 4.8 9.6 12.8 9.6 24v33.6h62.4v12.8h-62.4v27.2H816v-27.2h-36.8l16 36.8h110.4v12.8l-104-1.6zM467.2 496c-28.8 25.6-70.4 36.8-123.2 36.8h-64v-299.2h64c54.4 0 96 12.8 123.2 36.8 28.8 24 43.2 64 43.2 112 0 49.6-14.4 88-43.2 113.6m-32-192c-19.2-17.6-48-25.6-86.4-25.6h-22.4V489.6h22.4c38.4 0 67.2-9.6 86.4-25.6 19.2-17.6 28.8-44.8 28.8-80s-9.6-62.4-28.8-80z m-236.8 49.6c0-19.2-1.6-33.6-3.2-41.6-3.2-8-6.4-12.8-12.8-17.6-6.4-4.8-16-9.6-25.6-11.2-9.6-3.2-22.4-3.2-36.8-3.2h-4.8v-43.2h6.4c41.6 0 73.6 9.6 94.4 25.6 20.8 17.6 30.4 44.8 30.4 80v192h-48v-180.8z m520 3.2c-33.6 0-59.2-27.2-59.2-59.2 0-33.6 27.2-59.2 59.2-59.2 33.6 0 59.2 27.2 59.2 59.2s-25.6 59.2-59.2 59.2m0-102.4c-22.4 0-41.6 19.2-41.6 41.6 0 22.4 19.2 41.6 41.6 41.6 22.4 0 41.6-19.2 41.6-41.6 0-22.4-19.2-41.6-41.6-41.6z m-193.6 27.2c-6.4 0-11.2-4.8-11.2-11.2 0-6.4 4.8-11.2 11.2-11.2 6.4 0 11.2 4.8 11.2 11.2 0 6.4-4.8 11.2-11.2 11.2z m364.8 72l-40-75.2-40 75.2h-19.2v-112h17.6v75.2l41.6-73.6 41.6 73.6V240h17.6v112l-19.2 1.6zM644.8 265.6c-8-6.4-17.6-11.2-27.2-11.2-22.4 0-41.6 19.2-41.6 41.6 0 22.4 19.2 41.6 41.6 41.6 9.6 0 20.8-3.2 27.2-11.2l1.6-1.6 12.8 12.8-1.6 1.6c-11.2 9.6-25.6 16-40 16-33.6 0-59.2-27.2-59.2-59.2 0-33.6 27.2-59.2 59.2-59.2 14.4 0 28.8 4.8 40 16l1.6 1.6-14.4 11.2z"  horiz-adv-x="1024" />

    
    <glyph glyph-name="menu-index" unicode="&#58881;" d="M584.079 0.40200000000004366v228.005h-143.33v-228.667c-4.474-0.166-8.119-0.497-11.599-0.497-67.772 0-135.378 0-203.149 0-23.198 0-38.94 14.913-38.94 39.601-0.497 93.787-0.331 187.739 0.166 281.526 0 4.971 3.81 11.267 7.623 14.581 61.309 54.183 122.784 107.872 184.426 161.725 40.928 35.791 81.855 71.748 122.784 107.539 3.148 2.817 6.463 5.468 10.439 8.782 24.357-21.375 48.716-42.585 73.074-63.794 80.033-70.092 160.067-140.35 240.432-210.109 8.617-7.457 12.261-15.079 12.261-27.174-0.497-89.147-0.331-178.294-0.166-267.276 0-16.238-3.81-30.324-17.233-39.27-4.805-3.314-11.103-6.131-16.736-6.131-71.914-0.331-143.663-0.166-215.577-0.166-1.491 0.166-2.486 0.662-4.474 1.326v0 0zM691.951 631.889c0 37.614 0 72.412 0 107.043 0 22.204 4.971 27.507 25.85 27.507 32.311 0 64.789 0 97.102 0 16.736 0 22.535-6.297 22.535-25.021 0-74.235 0.331-148.634-0.166-223.034 0-11.434 2.983-18.891 11.434-26.18 35.46-30.324 70.257-61.475 105.22-92.462 17.233-15.244 17.565-22.535 3.148-40.597-8.782-10.937-17.233-22.204-26.18-33.14-10.771-13.587-19.717-14.416-32.809-2.817-124.11 110.026-248.385 220.217-372.496 330.242-4.308 3.81-8.782 7.457-13.753 11.93-28.003-24.689-55.675-49.213-83.347-73.735-100.58-89.312-201.492-178.625-302.238-267.937-13.587-12.096-22.204-11.434-33.637 2.817-9.444 11.93-18.891 23.861-28.334 35.791-10.937 13.92-10.439 23.033 2.652 34.797 56.173 50.042 112.677 99.753 169.014 149.628 75.062 66.446 150.291 132.893 225.353 199.504 34.134 30.158 67.276 30.158 101.409-0.166 40.431-35.957 80.862-71.748 121.293-107.539 1.987-1.823 3.977-3.314 7.954-6.627v0 0zM691.951 631.889z"  horiz-adv-x="1024" />

    
    <glyph glyph-name="tianmao1" unicode="&#58882;" d="M36.8 645.5c9.7 11.2 24.3 18.2 39.2 17.8 13-0.2 25.3-5.7 35.8-13 14.8-10 26-24.2 37.7-37.4 23.7-27 47.9-53.9 76.6-75.7 26.7-20.3 57.8-35.3 91-41 23.2-4.3 46.9-2.9 70.3-3.1 85.7 0 171.3 0.1 257 0 17.8 0.2 35.6-0.8 53.3 1.5 27 3 53.2 11.9 76.8 25.3 19.2 10.3 35.1 25.3 50.9 40.1 15.4 14.6 30.1 29.9 44.4 45.6 5.4 5.8 10 12.3 15.2 18.3 10 11.5 21.2 22.2 34.5 29.9 9.8 5.6 21 9.5 32.4 8.9 11.4-0.1 22.7-4.5 31.1-12.2 11.6-10.5 18.5-25.1 23.5-39.7 7.4-22.5 10.2-46.3 11.7-69.9v-224.1h-98.9c17.9 33 17.5 75-1.2 107.6-16.3 29.4-46.5 50.6-79.7 55.7-4.3 0.8-8.6 0.9-12.9 1.5 6.7-2.7 10.5-9.3 13.9-15.3 8.5-17 12.2-35.8 14.8-54.5 3.9-31.5 3.6-63.6-1.5-95h-64.6c-3.9 24.1-4.9 48.7-3.5 73.1 1.2 19 3.7 38.1 9.1 56.4 3 9.8 6.6 19.6 12.8 27.8 2.1 2.9 4.9 5.3 7.9 7.2-20.5-1.2-40.8-8-57.6-19.8-17.5-12.1-31.5-29.3-39.7-49-12.9-30.5-11.2-66.7 4.6-95.8H303.1c17.2 31.6 17.5 71.6 1 103.5-14 27.7-39.9 49-69.9 57.1-7.8 2.2-15.8 3.3-23.8 3.9 6.4-3.9 10.5-10.5 13.8-17.1 7.4-15.5 10.9-32.6 13.4-49.5 4.4-32.5 4.2-65.7-1-98H172c-5.4 34.3-5.5 69.6-0.1 103.9 2.9 16.6 6.7 33.4 15 48.1 2.8 4.9 6.5 9.5 11.4 12.5-35.8-1.8-70.1-22-89-52.5-21.2-33.1-22.7-77.6-3.8-112.1H5.8V529c0.9 24.2 3.1 48.6 9.4 72.1 4.4 15.9 10.6 31.9 21.6 44.4m451.8-248.1c-3.7-0.4-7.8-1.5-9.9-4.8-2-3.1-0.5-6.9 1.5-9.6 8.7-11.8 17.3-23.7 25.8-35.6 3.1-3 9-2.9 12.3-0.4 8.6 11.9 17.1 23.8 25.8 35.5 2.2 2.9 4 7.1 1.6 10.4-3.1 3.8-8.4 4.5-13 4.5-14.6 0-29.4 0.3-44.1 0zM273.3 160.79999999999995h-67.7v-63.3c0-14.4 7.5-23.5 23.5-23.5h67.2v64.3c0 14.2-6.6 22.5-23 22.5z m-16-12.9h9.4c12 0 16.3 0 16.3-15.5v-8.6h-25.7v24.1z m-12.7-61.5h-7.8c-12.1 0-18 1.3-18 15.3v9.7h25.8v-25z m0 37.4h-25.8V148h25.8v-24.2z m12.7-37.4v25H283v-25.1l-25.7 0.1z m-98.6 125.1V198c13.4-0.3 21.8-6.4 23.8-17.4l0.3-1.5-24.1-14v-14s17.6 10.5 24.3 14v-25 2.3l-24.3-14.1v-14s17.7 10.6 24.3 14v-8.3c0-30.9-24.3-32.7-24.3-32.7v-13.7c10.1 0.3 38.1 4.6 38.1 47.8V177c-1.2 22.2-14.6 34.1-38.1 34.5z m123.6 0H269v-15h-35.8v15h-13.3v-15h-14.2v-13.4h14.2v-12.4h13.3v12.4H269v-12.4h13.3v12.4h14.2v13.4h-14.2v15zM77.7 198h54.5v13.4H11.9V198h52v-34.7H5.8V150h56.6c-1.5-7.2-12.1-47.4-56.6-62.5V74c27.3 5.5 52.5 28.6 64.8 55.8 14-30.5 42.7-50.7 67.7-55.8v13.7c-45.2 15.4-57.9 56.5-59.4 62.3h59.5v13.3H77.7V198z m251.8-50.8h36v-73.1h15v73.1h36v13.6h-87v-13.6z m242.8 13.5c-13.9 0-18.9-14.3-18.9-14.3l-29.6-72.2h15.3c15.3 32.9 49.2 32.7 52.1 32.7l13-32.7h16.6l-29.6 72.2c0-0.1-4.9 14.3-18.9 14.3z m-18.9-51.3l12.5 29.7s1.7 4.6 6.4 4.6c4.9 0 6.4-4.6 6.4-4.6l7.5-19.5c-3.4-0.2-20.6-1.3-32.8-10.2z m89.6-6.2v57.4h-14.9v-64.1c0-13 9.3-22.4 23.4-22.4h18.1v14.3h-11c-10 0-15.6 1.8-15.6 14.8z m51.3 0v57.4h-14.9v-64.1c0-13 9.3-22.4 23.4-22.4h18.1v14.3h-11c-10.1 0-15.6 1.8-15.6 14.8z m-186.5 57.1c-5 2-9.6-1.6-10.5-2.4-6.5-5-13.6-9.4-26.4-9.4h-1.2c-12.8 0-19.9 4.4-26.4 9.4-0.9 0.7-5.5 4.3-10.5 2.4-4.7-1.8-5.4-6.2-5.4-9.6v-76.5h14.9v65.1c4.9-2.6 15.2-6.2 27.5-6.2h0.8c11.8 0 22.6 3.5 27.5 6.2v-65.1H513v76.5c0.2 3.4-0.6 7.8-5.2 9.6z m236.3-71.7c-4.1 0-7.5-3.2-7.5-7.2s3.4-7.2 7.5-7.2 7.4 3.3 7.4 7.2c0 3.9-3.3 7.2-7.4 7.2z m137.7 72c-10.7 0-19.9-3.1-27.4-9.2-8.9-7.4-13.5-18.8-13.5-34 0-13.8 3.8-24.6 11.3-32 7.5-7.5 17.5-11.2 29.6-11.2 7.5 0 14.6 1.7 21 5.1 6.4 3.4 11.3 8.2 14.7 14.3 3.3 6.1 5 14.5 5 25 0 13-3.8 23.4-11.4 30.9-7.5 7.3-17.4 11.1-29.3 11.1z m18.6-65.6c-5-4.7-11.3-7.1-18.6-7.1-7.6 0-13.7 2.3-18.8 7.1-5.1 4.9-7.7 12.4-7.7 22.4 0 10 2.6 17.5 7.7 22.3 5 4.7 11.3 7 18.8 7 7.3 0 13.6-2.4 18.6-7.1 5.2-4.9 7.8-12.2 7.8-21.8 0-10.2-2.6-17.9-7.8-22.8z m112.5 65.3c-5 2-9.6-1.6-10.5-2.4-6.5-5-13.6-9.4-26.4-9.4h-1.2c-12.8 0-19.8 4.4-26.4 9.4-0.9 0.7-5.5 4.3-10.5 2.4-4.6-1.8-5.4-6.2-5.4-9.6v-76.5h14.9v65.1c4.9-2.6 15.2-6.2 27.5-6.2h0.8c11.8 0 22.6 3.5 27.5 6.2v-65.1h14.9v76.5c0.2 3.4-0.6 7.8-5.2 9.6z m-198-65.3c-5-4.7-11.3-7.1-18.6-7.1-7.6 0-13.7 2.3-18.8 7.1-5.1 4.9-7.7 12.4-7.7 22.4 0 10 2.6 17.5 7.7 22.3 5 4.7 11.3 7 18.8 7 7.3 0 13.6-2.4 18.6-7.1 0.6-0.6 1.2-1.2 1.8-1.9h16.8c-1.9 4.4-4.4 8.3-7.8 11.6-7.6 7.5-17.5 11.3-29.4 11.3-10.7 0-19.9-3.1-27.4-9.3-8.9-7.4-13.5-18.8-13.5-34 0-13.8 3.8-24.6 11.3-32 7.5-7.5 17.5-11.2 29.6-11.2 7.5 0 14.6 1.7 21 5.1 6.4 3.4 11.4 8.2 14.7 14.3 0.6 1.1 1.1 2.3 1.6 3.5h-16.9c-0.5-0.7-1.1-1.4-1.8-2z"  horiz-adv-x="1024" />

    
    <glyph glyph-name="icon--1" unicode="&#59160;" d="M627.2 407.04l-197.12 197.12c-10.24 10.24-25.6 10.24-35.84 0-10.24-10.24-10.24-25.6 0-35.84l181.76-181.76-181.76-181.76c-10.24-10.24-10.24-25.6 0-35.84 10.24-10.24 25.6-10.24 35.84 0l197.12 197.12c5.12 5.12 7.68 15.36 7.68 23.04 2.56 2.56 0 10.24-7.68 17.92zM512 793.6C286.72 793.6 102.4 609.28 102.4 384s184.32-409.6 409.6-409.6 409.6 184.32 409.6 409.6S737.28 793.6 512 793.6z m0-768c-197.12 0-358.4 161.28-358.4 358.4S314.88 742.4 512 742.4s358.4-161.28 358.4-358.4-161.28-358.4-358.4-358.4z"  horiz-adv-x="1024" />

    
    <glyph glyph-name="icon--2" unicode="&#59161;" d="M693.76 499.2L512 317.44l-181.76 181.76c-10.24 10.24-25.6 10.24-35.84 0-10.24-10.24-10.24-25.6 0-35.84l197.12-197.12c5.12-5.12 15.36-7.68 23.04-7.68 7.68-2.56 15.36 0 23.04 7.68l197.12 197.12c10.24 10.24 10.24 25.6 0 35.84-15.36 10.24-30.72 10.24-40.96 0zM512 793.6C286.72 793.6 102.4 609.28 102.4 384s184.32-409.6 409.6-409.6 409.6 184.32 409.6 409.6S737.28 793.6 512 793.6z m0-768c-197.12 0-358.4 161.28-358.4 358.4S314.88 742.4 512 742.4s358.4-161.28 358.4-358.4-161.28-358.4-358.4-358.4z"  horiz-adv-x="1024" />

    
    <glyph glyph-name="icon--" unicode="&#59177;" d="M811.52 555.52c-10.24 10.24-25.6 10.24-35.84 0L512 266.24 248.32 555.52c-10.24 10.24-25.6 10.24-35.84 0-10.24-10.24-10.24-25.6 0-35.84l279.04-307.2c5.12-5.12 12.8-7.68 20.48-7.68 7.68 0 15.36 2.56 20.48 7.68l279.04 307.2c10.24 10.24 10.24 25.6 0 35.84z"  horiz-adv-x="1024" />

    
    <glyph glyph-name="cate" unicode="&#59284;" d="M607.8464 605.00845714c-42.5984-42.5984-42.5984-111.8208 0-157.0816 42.5984-42.5984 111.8208-42.5984 157.0816 0 42.5984 42.5984 42.5984 111.8208 0 157.0816-45.2608 42.5984-114.4832 42.5984-157.0816 0zM724.992 487.86285714c-21.2992-21.2992-55.9104-21.2992-77.2096 0-21.2992 21.2992-21.2992 55.9104 0 77.2096 21.2992 21.2992 55.9104 21.2992 77.2096 0 21.2992-21.2992 21.2992-55.9104 0-77.2096z m162.4064 292.864H530.6368c-29.2864 0-34.6112-13.312-61.2352-39.936L117.9648 389.35405714c-42.5984-42.5984-42.5984-111.8208 0-157.0816l274.2272-271.5648c42.5984-42.5984 111.8208-42.5984 157.0816 0l351.4368 351.4368c21.2992 21.2992 39.936 34.6112 39.936 61.2352V730.14125714c-2.6624 26.624-26.624 50.5856-53.248 50.5856zM509.3376 0.6436571399999593c-21.2992-21.2992-55.9104-21.2992-77.2096 0L157.9008 272.20845713999995c-21.2992 21.2992-21.2992 55.9104 0 77.2096l39.936 39.936 351.4368-351.4368-39.936-37.2736z m378.0608 399.36c0-13.312-13.312-34.6112-26.624-47.9232L586.5472 77.85325713999998 235.1104 429.29005714 509.3376 700.85485714c13.312 13.312 31.9488 29.2864 47.9232 29.2864h306.176c13.312 0 26.624-10.6496 26.624-26.624v-303.5136z"  horiz-adv-x="1024" />

    
    <glyph glyph-name="gengduo1" unicode="&#58887;" d="M899.21044603 411.19072918H530.43859243V779.96258278c0 11.0631553-7.37543714 18.43859243-18.43859243 18.43859243s-18.43859243-7.37543714-18.43859243-18.43859243v-368.7718536H124.78955397c-11.0631553 0-18.43859243-7.37543714-18.43859243-18.43859243s7.37543714-18.43859243 18.43859243-18.43859243h368.7718536v-368.7718536c0-11.0631553 7.37543714-18.43859243 18.43859243-18.43859243s18.43859243 7.37543714 18.43859243 18.43859243V374.31354432h368.7718536c11.0631553 0 18.43859243 7.37543714 18.43859243 18.43859243s-7.37543714 18.43859243-18.43859243 18.43859243z"  horiz-adv-x="1024" />

    
    <glyph glyph-name="dianhua" unicode="&#58908;" d="M801.62715567 250.64357184999994c-66.17200076 41.66591764-76.25498772 47.47831822-99.53573049 43.79867613-23.28291535-3.67384852-30.19971549-8.67080391-63.70611191-55.74067533-4.73479628-5.78126013-49.69001412-75.34684539-211.02142631 79.62829471C309.08015919 440.29323721 344.10591972 484.55105388 366.48648631 513.2364746200001c19.46205497 18.17443371 41.29295647 26.2361884 44.52359677 58.70988072 1.39552653 14.95248378-0.53228438 45.59468329-49.63859618 112.90149987-32.90893435 48.06781412-39.45349752 51.91691815-61.41982377 52.36012638-21.96632624 0.43596625-56.97543025-10.4385674-92.96437204-39.45349753-35.59208214-23.91296626-46.57090009-51.94081664-50.36931037-84.7889185-4.00987567-41.41027629-11.90868616-181.59080744 165.73018134-377.34255195 177.64104008-195.75464129 407.24896788-237.84204126 487.2618109-182.30051994 34.47102607 24.46190714 62.63430119 78.85630132 63.84877861 113.86468113 4.32055593 24.15122688-5.65959513 41.79772139-71.8315959 83.45639705z"  horiz-adv-x="1024" />

    
    <glyph glyph-name="yanjing1" unicode="&#58885;" d="M941.677 504.29c9.338 14.006 6.225 32.681-6.225 43.575-14.006 10.894-32.681 7.781-43.575-6.225-1.557-1.556-174.3-205.426-379.728-205.426-199.2 0-379.727 205.426-381.283 206.982-10.895 12.45-31.125 14.006-43.576 3.113-12.45-10.894-14.006-31.125-3.113-43.576 3.113-4.668 40.463-46.687 99.6-93.375l-79.37-82.482c-12.45-12.45-10.893-32.681 1.557-43.575 3.113-6.225 10.894-9.338 18.676-9.338 7.78 0 15.562 3.113 21.787 9.338l85.594 88.706c40.463-28.013 88.707-54.47 141.62-73.144l-32.682-110.495c-4.668-17.118 4.67-34.237 21.788-38.906h9.337c14.006 0 26.457 9.338 29.569 23.344l32.681 110.495c24.9-4.669 51.357-7.782 77.813-7.782s52.913 3.113 77.814 7.782l32.68-108.939c3.114-14.006 17.12-23.343 29.57-23.343 3.113 0 6.225 0 7.782 1.556 17.118 4.67 26.456 21.787 21.788 38.906L649.099 300.42c52.914 18.676 101.157 45.132 141.62 73.144l84.038-87.15c6.225-6.225 14.006-9.338 21.787-9.338 7.781 0 15.563 3.113 21.787 9.337 12.45 12.451 12.45 31.125 1.557 43.576l-79.37 82.481c63.808 46.689 101.16 91.82 101.16 91.82z"  horiz-adv-x="1024" />

    
    <glyph glyph-name="rocket" unicode="&#58989;" d="M778.30847978 457.97861893a501.04692945 501.04692945 0 0 1-67.06812847 249.06862463 503.52015762 503.52015762 0 0 1-182.94614222 182.29146417h-1.16387209c-9.09275061 4.58274631-20.44050336 5.67387638-29.53325396 0A497.99176525 497.99176525 0 0 1 313.41432674 707.04724356a489.55369268 489.55369268 0 0 1-67.06812847-249.06862463v-9.0927506c-26.18712175-14.69388498-50.04649935-37.3893905-65.97699841-63.43102823-20.36776137-28.29663988-31.78825613-64.52215831-31.78825612-104.16655095a189.12921263 189.12921263 0 0 1 37.5348745-114.35043165c23.85937759-32.80664418 57.90263587-57.75715186 96.60138245-71.28716475a22.25905349 22.25905349 0 0 1 9.09275062-1.16387208c15.85775707 0 30.69712605 12.43888284 30.69712603 28.2966399 0 16.94888714 4.5100043 32.80664418 10.18388069 46.40939909l3.41887423 6.83774846c4.58274631-6.83774846 9.09275061-13.60275491 14.76662698-20.36776137 13.67549691-18.18550122 28.3693819-35.13438834 45.46375304-50.99214541 5.67387638-6.76500645 13.67549691-10.18388068 22.76824752-10.18388067h187.52888851a29.24228595 29.24228595 0 0 1 20.44050338 7.92887853c17.02162913 15.85775707 32.9521282 33.97051627 47.71875518 53.17440555 4.58274631 6.83774846 9.09275061 13.60275491 14.76662699 19.27663129l2.32774416-6.76500645c5.67387638-14.76662698 9.09275061-30.55164204 10.18388068-46.48214111 0-2.18226014 1.16387207-5.60113437 1.16387206-7.92887853a30.76986805 30.76986805 0 0 1 37.53487452-19.20388928 200.47696539 200.47696539 0 0 1 97.69251251 71.28716476c22.76824752 31.71551411 36.37100242 70.26877669 37.53487451 112.16817149v2.18226015c0 38.55326257-11.34775276 75.94265307-31.86099812 106.4942951a199.45857732 199.45857732 0 0 1-66.99538648 63.43102825v5.60113436l1.09113007 2.32774415z m-206.87826181-423.50395226v-62.26715616c0-10.18388068 8.00162053-18.18550122 18.18550121-18.18550122 10.25662268 0 18.18550122 8.00162053 18.18550121 18.18550122v62.26715616c0 10.18388068-7.92887853 16.94888714-18.18550121 18.11275921-10.18388068 0-18.18550122-8.00162053-18.18550121-18.18550122z m23.93211959 435.9428351a118.2784999 118.2784999 0 0 0-165.99725507 0c-45.46375303 45.24552702-46.5548831 120.02430801 0 165.26983504a118.64220992 118.64220992 0 0 0 167.08838515 0c44.37262297-45.24552702 44.37262297-120.02430801-1.09113008-165.26983504z m-143.30174956-498.28273326v62.33989816c0 10.18388068-7.92887853 18.11275921-18.18550122 18.11275921a18.62195325 18.62195325 0 0 1-18.1855012-18.18550122v-62.19441415c0-9.09275061 8.00162053-17.02162913 18.1855012-17.02162913 10.25662268-1.09113007 18.18550122 6.83774846 18.18550122 17.02162913z m60.30312203 79.28878529c-10.18388068 0-18.18550122-7.92887853-18.18550122-18.11275921v-141.55594146c0-9.0200086 8.00162053-16.94888714 18.18550122-16.94888711s18.18550122 7.92887853 18.1855012 18.1855012v141.48319945c-1.16387207 10.18388068-9.09275061 18.11275921-18.1855012 16.94888713z"  horiz-adv-x="1024" />

    
    <glyph glyph-name="shijian" unicode="&#58924;" d="M512.384-57.86c-246.953 0-447.139 200.2-447.139 447.14 0 246.943 200.186 447.138 447.139 447.138 246.944 0 447.138-200.195 447.138-447.139 0-246.94-200.194-447.139-447.138-447.139z m0 843.607c-218.962 0-396.468-177.502-396.468-396.468 0-218.962 177.506-396.467 396.468-396.467S908.85 170.317 908.85 389.279 731.346 785.747 512.384 785.747z m229.041-508.58c-6.158-13.193-21.88-18.86-35.073-12.678l-210.116 70.244c-10.05 4.693-15.645 14.9-15.08 25.334-0.127 1.056-0.612 1.933-0.612 3.02V653.342c0 14.586 11.8 26.39 26.386 26.39 14.585 0 26.385-11.804 26.385-26.39v-275.727l195.409-65.35c13.217-6.184 18.885-21.88 12.701-35.098z"  horiz-adv-x="1024" />

    
    <glyph glyph-name="zhanghao" unicode="&#59062;" d="M512 325.24766759a249.69741276 249.69741276 0 0 0-176.56269297 426.26010574 249.69741276 249.69741276 0 1 0 353.12538594-353.12538595A248.06336352 248.06336352 0 0 0 512 325.24766759z m0 440.64249311c-105.28785172 0-190.94508035-85.65722864-190.94508035-190.94508035s85.65722864-190.94508035 190.94508035-190.94508035 190.94508035 85.65722864 190.94508035 190.94508035S617.28785172 765.8901607 512 765.8901607zM893.8901607-56.64249311000003a29.37616622 29.37616622 0 0 0-29.37616622 29.3761662 352.51399448 352.51399448 0 1 1-705.02798896 0 29.37616622 29.37616622 0 0 0-58.75233243 0 411.36730747 411.36730747 0 0 0 790.20051088 160.0927618A408.71702649 408.71702649 0 0 0 923.26632691-27.266326909999975a29.37616622 29.37616622 0 0 0-29.37616621-29.3761662z"  horiz-adv-x="1024" />

    
    <glyph glyph-name="liulan" unicode="&#58970;" d="M511.388 679.909c228.074 0 412.418-289.78 412.418-289.78 0.28-0.438 0.28-1.155 0-1.594 0 0-184.344-289.78-412.418-289.78-228.044 0-412.418 289.78-412.418 289.78-0.279 0.439-0.279 1.156 0 1.594 0 0.001 184.374 289.78 412.418 289.78m0 58.55c-62.002 0-125.551-17.675-188.88-52.535-48.246-26.557-96.572-63.196-143.636-108.901-78.619-76.349-127.269-152.268-129.3-155.462-12.45-19.586-12.45-44.869-0.015-64.433 2.046-3.216 50.696-79.135 129.315-155.484 47.063-45.704 95.39-82.345 143.635-108.901 63.33-34.86 126.879-52.536 188.88-52.536 62.01 0 125.562 17.676 188.892 52.535 48.249 26.557 96.574 63.198 143.637 108.903 78.616 76.35 127.259 152.27 129.29 155.465 12.46 19.584 12.46 44.863 0 64.447-2.031 3.195-50.674 79.114-129.29 155.465-47.063 45.705-95.388 82.345-143.637 108.903-63.33 34.859-126.882 52.534-188.891 52.534zM511.388 496.388c59.126 0 107.054-47.942 107.054-107.055 0-59.112-47.928-107.054-107.054-107.054-59.13 0-107.055 47.943-107.055 107.054 0 59.113 47.925 107.055 107.055 107.055m0 58.55c-22.333 0-44.028-4.387-64.484-13.041-19.727-8.345-37.43-20.28-52.62-35.47-15.189-15.19-27.12-32.895-35.464-52.621-8.652-20.453-13.037-42.145-13.037-64.474s4.386-44.02 13.037-64.472c8.343-19.727 20.275-37.43 35.463-52.62 15.19-15.193 32.894-27.126 52.62-35.472 20.457-8.653 42.152-13.041 64.485-13.041 22.33 0 44.027 4.387 64.482 13.041 19.727 8.346 37.431 20.28 52.621 35.47 15.188 15.191 27.12 32.894 35.465 52.621 8.65 20.453 13.037 42.146 13.037 64.473s-4.387 44.02-13.037 64.475c-8.345 19.725-20.277 37.43-35.465 52.62-15.19 15.19-32.894 27.124-52.62 35.47-20.456 8.654-42.151 13.041-64.483 13.041z"  horiz-adv-x="1024" />

    
    <glyph glyph-name="youxiang1" unicode="&#58974;" d="M204.8 53.3504a108.8 108.8 0 0 0-108.8 108.8V605.8496c0 60.1088 48.6912 108.8 108.8 108.8h614.4c60.1088 0 108.8-48.6912 108.8-108.8v-443.6992A108.8 108.8 0 0 0 819.2 53.3504H204.8z m0 64h614.4a44.8 44.8 0 0 1 44.8 44.8V605.8496A44.8 44.8 0 0 1 819.2 650.6496H204.8a44.8 44.8 0 0 1-44.8-44.8v-443.6992c0-24.7808 20.0704-44.8 44.8-44.8zM139.5712 508.8256a32 32 0 1 0 28.0576 57.5488l335.9744-163.9936c5.2736-2.56 11.52-2.56 16.7936 0l335.9744 163.9936a32 32 0 1 0 28.0576-57.5488l-335.9232-163.9424c-23.04-11.264-49.9712-11.264-73.0112 0L139.5712 508.8256z"  horiz-adv-x="1024" />

    
    <glyph glyph-name="touxiang" unicode="&#58907;" d="M512 830.90839652C262.6616457 830.90839652 59.84292623 628.04664265 59.84292623 378.75132275a451.64066661 451.64066661 0 0 1 156.72942492-341.73211445 451.81280233 451.81280233 0 0 1 295.38461538-110.38192492c108.18719767 0 213.14685281 39.20387295 295.42764885 110.38192492A451.85583673 451.85583673 0 0 1 964.15707377 378.75132275C964.15707377 628.04664265 761.29531989 830.90839652 512 830.90839652zM256.07746118 60.816949600000044c1.67832194 5.8095747 3.57181306 11.49004807 5.55137111 17.08445358 2.32383044 6.41204974 4.47552422 12.99623428 7.22969397 19.15008136 3.31360947 7.44486317 7.27272745 14.41635263 11.23184449 21.4308765 3.22754161 5.72350684 6.23991401 11.66218379 9.85476147 17.04142011 4.47552422 6.79935467 9.68262481 13.03926868 14.71758968 19.32221615 3.95911797 4.94889699 7.70306583 10.11296412 12.00645524 14.76062409 5.59440551 6.0677783 11.83431953 11.40398022 17.94513129 16.86928439 4.56159208 4.1312537 8.95104937 8.47767659 13.77084505 12.26465885 6.6702524 5.16406713 13.94297984 9.55352348 21.08660596 14.0290477 5.03496486 3.18450814 9.76869267 6.7132868 15.01882672 9.59655693 7.78913368 4.21732156 16.09467455 7.48789665 24.31414756 10.88757397 5.20710059 2.19472817 10.11296412 4.81979567 15.44916605 6.67025334 9.29531989 3.18450814 19.06401257 5.25013406 28.78967179 7.44486224 4.69069434 1.03281343 9.16621857 2.66810095 13.94298077 3.48574519a268.10112982 268.10112982 0 0 0 90.02689534 0c4.81979567-0.81764424 9.38138776-2.45293176 14.11511648-3.52877866 9.68262481-2.19472817 19.36525055-4.21732156 28.61753607-7.40182877 5.37923632-1.89349113 10.37116771-4.51855863 15.57826738-6.71328678 8.13340514-3.4427108 16.43894601-6.62721893 24.18504624-10.84454053 5.25013406-2.84023669 10.02689627-6.41204974 15.10489459-9.59655693 7.10059171-4.51855863 14.37331916-8.86498151 21.00053809-14.0290477 4.81979567-3.74394878 9.16621857-8.09037075 13.72781066-12.22162445 6.15384615-5.46530418 12.39376016-10.84454049 18.03120007-16.91231879 4.30338849-4.60462648 8.00430382-9.76869267 11.92038739-14.67455622 5.07799926-6.32598189 10.28509986-12.60892935 14.80365754-19.40828402 3.61484651-5.42226978 6.58418547-11.27487888 9.81172707-16.99838665 3.95911797-7.05755825 7.96126942-14.0720821 11.31791236-21.51694434 2.71113535-6.19687962 4.86282914-12.69499723 7.1436261-19.10704698 2.02259245-5.63743991 3.91608358-11.36094675 5.59440552-17.12748798A408.21947299 408.21947299 0 0 0 512-29.812420780000025a408.47767659 408.47767659 0 0 0-255.92253882 90.62937038z m547.90747688 32.74878976c-1.24798263 3.4857452-2.92630454 6.7132868-4.3464229 10.15599761a308.55298539 308.55298539 0 0 1-24.57235022 49.01560004c-0.73157637 1.07584689-1.24798263 2.32383044-1.97955898 3.39967732a303.86229198 303.86229198 0 0 1-35.37385725 44.6691762 309.02635817 309.02635817 0 0 1-29.00484098 27.19741865c-1.67832194 1.37708487-3.18450814 2.88327015-4.86283007 4.21732063a298.05271635 298.05271635 0 0 1-37.52555103 25.04572393c-3.18450814 1.80742326-6.45508319 3.4427108-9.72565921 5.12103274a295.29854753 295.29854753 0 0 1-35.11565367 15.7504031c-2.71113535 1.03281343-5.33620191 2.28079604-8.13340513 3.18450814-1.20494916 0.43033931-2.36686391 0.98977903-3.57181213 1.42011833a185.04572393 185.04572393 0 0 1 87.18665958 156.9876276 185.21785873 185.21785873 0 0 1-185.00268954 184.95965606 185.17482526 185.17482526 0 0 1-184.95965607-184.95965606c0-66.14308802 34.85745008-124.28187224 87.18665958-156.9876276-1.20494916-0.38730492-2.32383044-0.94674556-3.52877866-1.37708487-2.88327015-0.98977903-5.59440551-2.28079604-8.43464312-3.31360946a315.48144137 315.48144137 0 0 1-34.55621302-15.49219951c-3.4427108-1.80742326-6.88542252-3.52877866-10.24206546-5.4653042a302.70037629 302.70037629 0 0 1-37.13824611-24.74448593c-1.93652459-1.46315182-3.61484651-3.18450814-5.50833765-4.73372782a311.35018862 311.35018862 0 0 1-36.36363628-35.28778939c-9.89779493-11.36094675-19.23614829-23.23829974-27.4556213-36.06239922-0.81764424-1.29101702-1.46315182-2.6250675-2.23776257-3.95911796a307.00376572 307.00376572 0 0 1-19.58041976-37.31038184 328.56374353 328.56374353 0 0 1-4.81979567-11.27487888c-1.37708487-3.4427108-3.05540588-6.6702524-4.34642289-10.15599761A407.83216809 407.83216809 0 0 0 103.43625647 378.75132275c0 225.28241032 183.28133413 408.56374353 408.56374353 408.56374354S920.52071006 604.03373308 920.52071006 378.75132275a407.78913368 407.78913368 0 0 0-116.535772-285.18558339zM512 298.36401784a141.58149501 141.58149501 0 0 0-141.40936022 141.40936021A141.58149501 141.58149501 0 0 0 512 581.18273732a141.58149501 141.58149501 0 0 0 141.40936022-141.40935927A141.58149501 141.58149501 0 0 0 512 298.36401784z"  horiz-adv-x="1024" />

    
    <glyph glyph-name="huojian1" unicode="&#58990;" d="M512 76c-23.7 0-42-22.1-42-49.1 0-31.9 42-90.9 42-90.9s42 55.3 42 90.9c0 27-18.4 49.1-42 49.1z m232 280.9c20 249.1-102.8 407-225.6 471.3l-7.1 3.8-7.2-3.8C381.3 763.9 257 606 278.5 357 217.1 304.3 190 241.4 190 154v-15.4l197.1 34.7c12.8-39.8 64.3-69.3 124.3-69.3 59.9 0 111.4 29.5 124.2 68.1L834 136v15.4c0 89.9-27.1 152.9-90 205.5zM575 459.6c-37.1-34.7-95.7-31.8-129.9 5.8-34.3 37.5-31.5 96.9 5.7 131.6 37.1 34.7 95.7 31.8 129.9-5.8 34.3-37.6 31.4-96.9-5.7-131.6z"  horiz-adv-x="1024" />

    
    <glyph glyph-name="jiantou_qiehuanyou_o" unicode="&#60301;" d="M849.066667 384l-179.2-179.2-29.866667 29.866667 149.333333 149.333333H128v42.666667h763.733333l-42.666666-42.666667z"  horiz-adv-x="1024" />

    
    <glyph glyph-name="jiantou_qiehuanzuo_o" unicode="&#60304;" d="M170.666667 418.133333L349.866667 597.333333l29.866666-29.866666-149.333333-149.333334h669.866667v-42.666666H128l42.666667 42.666666z"  horiz-adv-x="1024" />

    
    <glyph glyph-name="guanbi1" unicode="&#58880;" d="M819.43773308 57.510802119999994a25.24793148 25.24793148 0 0 0-17.84677073 7.40116078L193.64596748 672.8569578a25.19544098 25.19544098 0 1 0 35.69354138 35.69354141l607.99748541-607.99748541a25.30042199 25.30042199 0 0 0-17.89926119-43.04221168M211.49273817 57.510802119999994a25.19544098 25.19544098 0 0 0-17.84677069 43.09470218L801.64345286 708.55049921a25.24793148 25.24793148 0 0 0 35.64105091-35.69354141L229.33950886 64.91196290000005a25.19544098 25.19544098 0 0 0-17.8467707-7.40116077"  horiz-adv-x="1024" />

    
    <glyph glyph-name="xiala-" unicode="&#58921;" d="M778.496 492.544a30.72 30.72 0 0 0-8.96-21.76l-230.4-230.4a30.72 30.72 0 0 0-43.52 0l-230.4 230.4a30.72 30.72 0 1 0 43.52 43.52l208.64-208.64 208.64 208.64a30.72 30.72 0 0 0 51.2-21.76z"  horiz-adv-x="1024" />

    
    <glyph glyph-name="jingdong1" unicode="&#58883;" d="M215.77387483 503.98806191c1.45575767-18.8197574 3.53567259-37.74369333 4.26309452-56.66762923 1.35249301-35.14288583-12.58092649-63.11207565-41.17427356-83.59594776-22.0419806-15.80406354-46.16478996-27.24176791-72.47077893-33.47968497-30.77652665-7.17369601-56.45835836 18.09142164-48.45214808 48.76468363 4.5747162 17.46726439 10.39683306 35.24706434 19.54717931 50.63624152 22.66613785 38.15857969 36.49537884 79.43703176 47.82799084 121.85870594 2.07991492 7.90203177 4.88725176 15.80406354 8.4220105 23.18611659 6.13465239 12.78928353 20.17133657 19.44391465 33.58386348 15.38917717 9.67032499-2.91151535 19.13229295-7.07043134 28.17754686-11.85350457 14.34921971-7.48623156 28.28172536-16.01242057 42.42258802-24.12280937 8.62945368 9.25452477 16.94819952 19.02811443 25.88927491 27.97010365 31.50486241 31.29650539 70.39177785 51.15530639 110.00611523 69.45508508 62.07394587 28.69752557 125.91435728 53.02777814 193.08299808 66.96028378 31.08906219 6.4462741 62.90463246 10.60519008 94.61693806 12.99672671 37.84787183 2.80733684 75.90227301 4.2630945 113.749231 3.32731556 49.18048383-1.14322212 97.63354576-7.69458859 142.5509351-30.25746176 24.22607405-12.16421242 44.50158911-29.00823342 48.8679483-56.66580156 3.01569386-19.33973613 1.87155788-39.82269439-0.31162169-59.47313837-3.63893726-33.37733415-17.25982121-64.1538608-30.56816962-94.51458724-3.53658644-8.00529645-12.78928353-14.45248439-20.79549381-19.1313791-20.27551508-11.85259074-42.94165293-17.98815698-65.92032633-22.35451616-64.7771042-12.37348332-128.3058939-6.86298816-190.27566126 15.38826334-36.80700053 13.20508374-66.44030506 37.22280075-93.47371593 64.77619034-2.80733684 2.80733684-5.09469494 6.65463113-8.52618901 8.31874584-3.63893726 1.76737937-9.46196796 3.22313706-12.06094777 1.45575767-2.70315832-1.87155788-4.2630945-8.00621029-3.53475874-11.64606139 0.93577896-4.36635918 4.26218067-8.73363221 7.48623155-12.16512628 39.19853714-42.42076035 86.92326332-70.80666423 143.1741785-83.80339093 67.16772696-15.49244184 134.02474607-14.66084142 199.94415855 7.17369599a112.07689168 112.07689168 0 0 1 11.12516882 4.36727303c3.53567259 1.55993618 7.07043134 3.53475874 11.95768309 4.36727302-7.27878837-10.60610394-14.14086268-21.41965105-21.73127275-31.71321943-51.15530639-68.62348464-116.76401102-116.86818953-199.52927219-140.99008507-52.81850725-15.38917717-105.63792836-13.20508374-158.14572775-0.41580022-87.75577759 21.41873721-168.33603148 58.22573774-237.7920304 117.07563272-21.62709423 18.29977867-42.00587399 38.05531502-56.25091519 62.90554632-5.51049516 9.56523264-10.18938988 19.96297952-12.78836966 30.46490494-2.18409344 8.4220105-5.61467366 13.82832713-12.89346205 16.01242057z m638.82448348 209.61448356c-10.18938988-0.93577896-20.48204442-1.35249301-30.5681696-2.91151535-15.59662036-2.4948013-30.46490495-7.59041007-42.83747442-17.77979995-10.91772563-8.94198923-9.67032499-21.83545127 2.49480129-28.69752558 4.88725176-2.70315832 10.39774691-4.67889472 15.80497738-6.13465238 24.64187425-6.7578958 49.80464108-4.99051642 74.75813705-2.18409345 12.78836968 1.45667152 25.47347467 5.51140899 37.53533629 10.19030372 8.31783198 3.22313706 14.55574905 10.29356839 14.13994883 20.48295826-0.41580022 9.67032499-8.31783198 13.20508374-15.38826332 16.53239931-17.67562142 8.11038881-36.59955735 10.39774691-55.93837964 10.50192542zM561.70137641 599.74913595c14.76410609 0 26.30598896 10.39774691 26.30598897 23.49865213-0.10417852 12.9967267-12.16512628 23.81027383-26.41016747 23.70609531-14.8682846-0.10417852-25.99345342-10.29356839-26.09763194-23.70609531 0-13.10090522 11.43679052-23.3944736 26.20181044-23.49865213z m114.47756677-566.35461841c-6.86298816 0-13.41344077-0.41580022-19.85971487 0.20835704-1.76829322 0.20744319-4.15982985 3.22313706-4.67889471 5.40631664-4.78307323 18.71557889-8.83872456 37.74369333-14.03668417 56.35509368-1.9757364 7.27787453-5.71885219 14.34830587-9.98194669 20.6913153-6.4462741 9.66941114-17.25982121 10.91681178-24.53860958 1.87155788-7.07043134-8.73454605-13.3083484-18.61231422-17.67562144-29.00914726-6.34209558-15.18082015-10.91772563-31.08906219-15.38826332-46.99730426-1.87155788-6.5504526-4.15891599-9.98194669-11.43770436-8.83781071-4.05473748 0.62415724-8.4220105 0.10417852-13.51579159 0.10417851 1.03904361 27.24176791 1.97482256 53.65193538 3.01478002 82.45272562-6.4462741-3.22405089-11.33352583-4.78307323-15.07664163-7.69458859-8.62945368-6.96625282-17.15564271-14.14086268-24.95440981-22.0419806-14.13994884-14.45339823-27.8650113-29.42586134-41.58915992-44.39832445-8.63036753-9.35778944-11.6460614-10.29356839-26.51434599-6.86298815a24731.18539854 24731.18539854 0 0 0 53.02777814 89.62733548c-17.25982121 4.99051642-32.33646283 11.85259074-38.78365078 29.52912601-4.05473748 11.02099031-3.43058023 21.93871594 1.03995746 33.27224178 1.03995745-3.84729428 1.87155788-7.79785326 3.01569386-11.64514755 5.82211684-19.85971487 23.2902951-30.15328325 42.94165293-24.22607404 5.09469494 1.55902234 10.71028245 5.82211684 13.51670542 10.29356839 17.25982121 27.8650113 33.89639903 56.14673666 50.32461982 84.42754817 3.01569386 5.19887345 6.03047388 6.13465239 11.64514756 5.19887346 27.03341087-4.2630945 54.17100026-8.31783198 81.41276817-1.14413597 5.92629537 1.55993618 11.64514755 4.05565132 17.98724313 6.34209559 0.10417852-73.92562277 0.10417852-147.74798086 0.1041785-222.92283197z"  horiz-adv-x="1024" />

    
    <glyph glyph-name="xiangyoujiantou" unicode="&#59019;" d="M1024.2048 384c0-6.656-2.4576-13.2608-7.5264-18.2784l-325.8368-325.8368a25.6 25.6 0 1 0-36.1984 36.1984l282.5216 282.5216H25.8048a25.6 25.6 0 1 0 0 51.2h910.9504l-282.112 282.112a25.6 25.6 0 1 0 36.1984 36.1984l325.8368-325.8368c4.608-4.608 7.5264-11.008 7.5264-18.0736V384z"  horiz-adv-x="1024" />

    
    <glyph glyph-name="xiangzuojiantou" unicode="&#59020;" d="M0.2048 384c-0.0512 6.656 2.4064 13.2608 7.4752 18.2784l325.8368 325.8368a25.6 25.6 0 1 0 36.1984-36.1984L87.2448 409.3952h911.36a25.6 25.6 0 1 0 0-51.2H87.552l282.112-282.112a25.6 25.6 0 0 0-36.1984-36.1984L7.68 365.7216a25.4976 25.4976 0 0 0-7.4752 18.0736V384z"  horiz-adv-x="1024" />

    
    <glyph glyph-name="jiantou-copy" unicode="&#60305;" d="M243.338 376.92755556l-0.177-0.164 489.99-489.978 30.48699999 30.487-460.81399999 460.8 460.732 459.995-29.314 29.327-491.083-490.291z"  horiz-adv-x="1024" />

    
    <glyph glyph-name="jingdong-" unicode="&#58884;" d="M512-58.266c-251.72 0-455.793 204.073-455.793 455.793S260.28 853.309 512 853.309s455.793-204.073 455.793-455.792S763.72-58.266 512-58.266z m96.328 243.088c114.247 0 206.93 101.888 206.93 227.553 0 125.645-92.672 227.533-206.93 227.533H470.313v-455.086h138.015z m-372.624 0c91.464 0 165.602 71.926 165.602 160.614V639.908h-55.184v-294.441c0-59.157-49.408-107.11-110.387-107.11h-27.587v-53.545h27.587-0.03z m0 0M608.328 586.373h-82.832v-347.986h82.801c83.835 0 151.777 77.906 151.777 173.988s-67.942 173.988-151.777 173.988h0.03z m0 0"  horiz-adv-x="1024" />

    
    <glyph glyph-name="riqi1" unicode="&#58905;" d="M862.208 37.6832H149.9136c-8.192-0.1024-16.0768 3.072-21.8112 8.9088-5.8368 5.7344-9.0112 13.6192-8.9088 21.8112V725.7088c-0.1024 17.2032 13.5168 30.8224 30.72 30.8224h711.5776c17.2032 0 30.8224-13.5168 30.8224-30.8224v-657.3056c0.3072-8.0896-2.7648-15.9744-8.3968-21.7088-5.8368-5.7344-13.6192-9.0112-21.7088-9.0112z m-693.9648 49.2544H844.8V707.072H168.2432v-620.1344z m13.2096 12.1856M336.6912 636.2112c-7.5776-0.1024-14.9504 3.1744-20.3776 8.9088-5.4272 5.8368-8.3968 13.7216-8.2944 21.8112V784.4864c0 17.2032 12.5952 30.72 28.672 30.72 15.9744 0 28.5696-13.5168 28.5696-30.72v-116.6336c0-17.2032-12.5952-31.6416-28.5696-31.6416z m339.7632 0c-7.5776-0.1024-14.9504 3.1744-20.3776 8.9088-5.4272 5.8368-8.3968 13.7216-8.2944 21.8112V784.4864c0 17.2032 12.5952 30.72 28.672 30.72 15.9744 0 28.5696-13.5168 28.5696-30.72v-116.6336c0-17.2032-12.5952-31.6416-28.5696-31.6416zM862.208 520.192H149.9136c-8.192-0.1024-16.0768 2.8672-21.8112 8.0896-5.8368 5.3248-9.0112 12.4928-8.9088 19.8656 0 15.6672 13.5168 27.9552 30.72 27.9552h711.5776c17.2032 0 30.8224-12.3904 30.8224-27.9552 0.3072-7.3728-2.7648-14.5408-8.3968-19.7632-5.8368-5.2224-13.6192-8.192-21.7088-8.192z m-578.56-94.72h84.992v-84.992h-84.992v84.992z m188.928 0h84.992v-84.992h-84.8896l-0.1024 84.992z m182.5792 0h85.0944v-84.992h-84.992l-0.1024 84.992zM283.648 274.5344h84.992v-84.992h-84.992v84.992z m188.928 0h84.992v-84.992h-84.8896l-0.1024 84.992z m182.5792 0h85.0944v-84.992h-84.992l-0.1024 84.992z m0 0"  horiz-adv-x="1024" />

    
    <glyph glyph-name="JD" unicode="&#58977;" d="M1080.131768 85.542174c-67.083986-61.197987-168.474964-92.25098-301.253935-92.25098h-88.471981V739.105034h88.471981c132.779971 0 234.16995-30.909993 301.253935-91.964981 66.077986-60.097987 101.007978-157.229966 101.007978-280.917939 0-123.401973-34.929992-220.437953-101.007978-280.67994z m93.20798 650.83486C1079.079768 818.773017 939.982798 860.544008 759.929837 860.544008H557.24288v-988.022788H759.929837c180.052961 0 319.196931 41.723991 413.409911 124.070973 93.06598 81.294983 142.157969 209.145955 142.157969 369.629921 0 160.865965-49.091989 288.908938-142.157969 370.15492zM282.305939 263.778136c0-68.135985-4.736999-118.568975-14.019997-146.080969-9.089998-27.321994-23.014995-50.097989-45.21599-67.514985-25.694994-19.569996-56.891988-35.885992-92.68298-44.976991-34.306993-8.612998-76.939983-13.109997-126.845973-13.540997H0v-119.621974h3.539999c3.493999-0.095 6.124999 0 7.321999 0 137.80297 0 243.404948 29.809994 309.291933 86.079981 66.987986 57.274988 100.912978 144.884969 100.912979 260.247945V862.506007H282.305939v-598.727871zM1392.677701 42.862183c-29.617994 0-53.733988-23.972995-53.733989-53.638988 0-29.521994 24.115995-53.589988 53.733989-53.589989s53.733988 24.067995 53.733988 53.589989c0 29.665994-24.115995 53.638988-53.733988 53.638988zM2016.909567 684.223045h-389.726917v55.264989h389.725917v-55.264989z m78.949983-45.16999V785.040024h-547.626883V638.671055h232.68695v-139.47797c0-25.789994-4.544999-38.613992-13.396997-46.36599-8.947998-7.798998-22.631995-11.913997-40.719991-12.248997v-43.493991c46.98799 1.483 81.390983 11.626998 103.305978 30.622994 21.722995 18.899996 32.727993 47.99199 32.727993 86.892981V638.670055h233.02195v0.384zM1863.1716 895.713h-82.251983v-34.354993h-252.591945v-45.55199h587.483873V861.358007h-252.639945zM1528.327672 398.471107h46.55699c99.572979 86.605981 125.601973 210.006955 125.601973 210.006955h-89.954981c-10.909998-87.322981-47.75299-160.913965-82.203982-210.006955zM1943.700582 608.478062s25.885994-123.399973 125.458973-210.006955h46.65199c-34.498993 49.092989-71.293985 122.635974-82.251982 210.006955h-89.858981zM2202.129527 398.471107h46.55699c99.572979 86.605981 125.506973 210.006955 125.506973 210.006955h-89.811981c-11.004998-87.322981-47.79999-160.913965-82.250982-210.006955zM2617.455438 608.478062s25.932994-123.399973 125.505973-210.006955h46.60399c-34.449993 49.092989-71.293985 122.635974-82.202983 210.006955h-89.90698zM2408.644483 861.358007L2424.769479 896h-82.394982l-16.172997-34.641993h-124.214973v-45.55199h102.921978l-82.777982-177.134962h238.333948v-139.47797c0-26.939994-4.449999-38.613992-13.349997-46.36599-8.995998-7.798998-22.584995-11.913997-40.670991-12.248997v-43.493991c46.93999 1.483 81.341983 11.626998 103.208978 30.622994 21.769995 18.899996 32.823993 47.99199 32.823993 86.892981V638.670055h226.992951v45.55199h-226.992951v97.849979h-82.011983v-97.849979h-133.640971l60.862987 131.583972h401.879914V861.358007h-380.921918zM2112.127546-56.997795c-79.476983 0-144.167969 64.546986-144.167969 143.927969 0 79.332983 64.690986 143.879969 144.167969 143.879969 79.523983 0 144.214969-64.546986 144.214969-143.879969 0-79.379983-64.690986-143.927969-144.214969-143.927969z m0 358.767923c-118.664975 0-215.222954-96.366979-215.222954-214.839954 0-118.519975 96.557979-214.887954 215.222954-214.887954 118.711974 0 215.221954 96.366979 215.221954 214.887954 0 118.472975-96.509979 214.839954-215.221954 214.839954zM2718.798416 283.635132l-136.176971-254.888946-136.224971 254.889946h-70.001985v-393.554916h68.279986v249.959946l137.94697-248.715946 137.899971 248.764946v-250.008946h68.374985V283.635132zM1838.769605-20.919803c-26.412994-23.302995-60.193987-36.077992-95.45798-36.077992-79.428983 0-144.071969 64.499986-144.071969 143.831969 0 79.380983 64.642986 143.832969 144.071969 143.832969 35.263992 0 69.092985-12.823997 95.50498-36.173992l7.655998-6.506999 50.09699 50.049989-8.372999 7.654999c-39.666991 36.077992-91.15198 55.982988-144.884969 55.982988-118.616975 0-215.126954-96.366979-215.126953-214.839954 0-118.424975 96.509979-214.791954 215.126953-214.791954 53.685988 0 105.169977 19.904996 145.027969 56.078988l8.181999 7.607998-50.09699 50.00099-7.655998-6.649999z"  horiz-adv-x="2789" />

    
    <glyph glyph-name="xiangxia-copy-x-copy" unicode="&#60306;" d="M850.657 504.36c-6.281 0-12.564-2.333-17.393-7.01500001l-324.508-314.45099999-327.082 314.514c-9.797 9.422-25.495 9.243-35.064-0.395-9.57-9.64600001-9.386-25.099 0.407-34.513l344.479-331.243c9.658-9.285 25.095-9.262 34.721 0.069l341.837 331.24c9.757 9.453 9.881 24.906 0.271 34.512-4.853 4.853-11.26 7.283-17.667 7.282v0 0zM252.258 653.123c-4.294 0-8.587-1.63299999-11.824-4.901-6.379-6.423-6.254-16.72800001 0.272-23.004l256.566-246.705c6.427-6.184 16.692-6.18 23.115 0.008l254.968 245.729c6.52 6.292 6.631 16.589 0.244 23.009-6.383 6.423-16.853 6.528-23.372 0.244l-243.414-234.601-244.998 235.589c-3.218 3.094-7.386 4.633-11.552 4.634l-0.004 0zM252.258 653.123z"  horiz-adv-x="1024" />

    


  </font>
</defs>
</svg>
